<?xml version="1.0" standalone="no"?>
<!DOCTYPE svg PUBLIC "-//W3C//DTD SVG 1.1//EN" "http://www.w3.org/Graphics/SVG/1.1/DTD/svg11.dtd" >
<svg xmlns="http://www.w3.org/2000/svg">
<metadata>Generated by IcoMoon</metadata>
<defs>
<font id="icomoon" horiz-adv-x="1024">
<font-face units-per-em="1024" ascent="960" descent="-64" />
<missing-glyph horiz-adv-x="1024" />
<glyph unicode="&#x20;" horiz-adv-x="512" d="" />
<glyph unicode="&#xe900;" glyph-name="send" d="M373.333 208.555v-197.888c0-13.824 8.875-26.069 22.016-30.421 3.285-1.067 6.656-1.579 9.984-1.579 9.984 0 19.627 4.693 25.771 13.056l115.755 157.525zM1010.56 954.069c-9.813 6.955-22.699 7.893-33.365 2.304l-960-501.333c-11.349-5.931-18.048-18.048-17.109-30.805 0.981-12.8 9.472-23.723 21.547-27.861l266.88-91.221 568.363 485.973-439.808-529.877 447.275-152.875c3.328-1.109 6.827-1.707 10.325-1.707 5.803 0 11.563 1.579 16.64 4.651 8.107 4.949 13.611 13.269 15.019 22.613l117.333 789.333c1.749 11.947-3.285 23.808-13.099 30.805z" />
<glyph unicode="&#xe901;" glyph-name="levels" horiz-adv-x="1009" d="M956.861 340.48c0 19.501 0 51.69-0.401 55.073-7.592 135.143-119.033 241.858-255.398 241.858-0.994 0-1.987-0.006-2.979-0.017l0.151 0.001h-6.634c-82.233-2.979-153.225-48.409-192.008-114.923l-0.593-1.101c-20.43-34.261-32.508-75.558-32.508-119.675 0-31.946 6.333-62.413 17.811-90.213l-0.575 1.572c3.428-8.504 6.723-17.096 9.617-25.778l23.463-70.166c6.691-20.624 11.14-44.482 12.394-69.183l0.027-0.672c3.918-80.139 0-175.727-1.87-211.167h212.992v76.399c0 0.010 0 0.023 0 0.035 0 1.047 0.13 2.063 0.374 3.033l-0.018-0.085c5.716 22.767 26.001 39.357 50.162 39.357 0.021 0 0.041 0 0.062 0h-0.003c48.974 0 75.687-0.356 78.937-0.49 0.459-0.016 0.999-0.026 1.541-0.026 12.405 0 23.665 4.897 31.955 12.863l-0.015-0.015c8.96 8.749 14.517 20.949 14.517 34.447 0 0.192-0.001 0.384-0.003 0.576v-0.029 87.129c0.123 7.204 5.93 13.011 13.122 13.134h77.613l-51.022 133.565c-0.452 1.284-0.714 2.766-0.714 4.308 0 0.066 0 0.133 0.001 0.199v-0.010zM384.801 334.915c-0.054 0-0.118 0-0.182 0-132.779 0-240.417 107.639-240.417 240.417s107.639 240.417 240.417 240.417c106.498 0 196.822-69.245 228.406-165.168l0.484-1.699c18.34 6.723 39.642 11.576 61.755 13.636l1.021 0.077c-9.162 29.786-21.675 55.732-37.456 79.306l0.681-1.081c-1.355 2.055-2.161 4.575-2.161 7.284 0 3.189 1.117 6.116 2.982 8.413l-0.019-0.025 47.638 57.522-64.467 65.269-57.344-47.505c-2.274-1.852-5.207-2.973-8.402-2.973-2.629 0-5.080 0.759-7.146 2.071l0.054-0.032c-29.184 19.379-63.273 34.248-99.841 42.61l-2.069 0.398c-5.507 1.298-9.648 5.876-10.279 11.515l-0.006 0.061-7.213 74.574h-92.828l-7.346-74.618c-0.636-5.699-4.778-10.277-10.194-11.558l-0.091-0.018c-38.576-8.519-72.636-23.365-102.817-43.557l1.084 0.683c-2.055-1.355-4.575-2.161-7.284-2.161-3.189 0-6.116 1.117-8.413 2.982l0.025-0.019-57.478 47.594-65.224-65.358 47.594-57.478c1.852-2.274 2.973-5.207 2.973-8.402 0-2.629-0.759-5.080-2.071-7.146l0.032 0.054c-19.38-29.184-34.249-63.273-42.61-99.842l-0.398-2.069c-1.298-5.507-5.876-9.648-11.515-10.279l-0.061-0.006-74.618-7.213v-92.828l74.618-7.213c5.699-0.636 10.277-4.778 11.558-10.194l0.018-0.091c8.518-38.576 23.364-72.636 43.557-102.816l-0.683 1.084c1.355-2.055 2.161-4.575 2.161-7.284 0-3.189-1.117-6.116-2.982-8.413l0.019 0.025-47.594-57.478 65.402-65.402 57.478 47.594c2.274 1.852 5.207 2.973 8.402 2.973 2.629 0 5.080-0.759 7.146-2.071l-0.054 0.032c29.184-19.38 63.273-34.249 99.842-42.61l2.069-0.398c5.507-1.298 9.648-5.876 10.279-11.515l0.006-0.061 7.168-74.618h92.828l7.168 74.618c0.636 5.699 4.778 10.277 10.194 11.558l0.091 0.018c6.812 1.469 13.624 3.25 20.346 5.209-9.202 17.6-16.853 38.030-21.904 59.463l-0.357 1.799c-18.516-5.118-39.777-8.059-61.724-8.059-0.088 0-0.176 0-0.264 0h0.014zM589.201 638.82c-28.012 87.774-108.84 150.228-204.256 150.228-118.173 0-213.971-95.798-213.971-213.971s95.798-213.971 213.971-213.971c20.408 0 40.148 2.857 58.844 8.193l-1.509-0.368c-1.285 9.769-2.018 21.066-2.018 32.535 0 49.002 13.386 94.877 36.701 134.169l-0.668-1.217c26.535 45.402 65.107 81.239 111.367 103.728l1.54 0.676zM366.592 506.68c-2.387-2.258-5.617-3.647-9.171-3.647s-6.785 1.388-9.178 3.653l0.006-0.006-67.183 65.581c-2.289 2.361-3.7 5.585-3.7 9.138 0 7.254 5.88 13.134 13.134 13.134 3.442 0 6.575-1.324 8.917-3.491l-0.009 0.008 57.878-56.676 111.883 109.256c2.391 2.466 5.734 3.996 9.434 3.996 7.254 0 13.134-5.88 13.134-13.134 0-3.811-1.623-7.243-4.216-9.643l-0.009-0.008z" />
<glyph unicode="&#xe902;" glyph-name="library" d="M273.082 738.164v68.236c0.001 0.055 0.001 0.121 0.001 0.186 0 9.434-7.648 17.082-17.082 17.082 0 0-0.001 0-0.001 0h-238.918c0 0-0.001 0-0.001 0-9.434 0-17.082-7.648-17.082-17.082 0-0.065 0-0.131 0.001-0.196v0.010-68.282zM0 704.186v-563.2h273.082v563.2zM204.8 482.304h-136.518c-9.434 0-17.082 7.648-17.082 17.082v0 136.518c0 9.434 7.648 17.082 17.082 17.082v0h136.518c9.434 0 17.082-7.648 17.082-17.082v0-136.518c0.001-0.055 0.001-0.121 0.001-0.186 0-9.434-7.648-17.082-17.082-17.082 0 0-0.001 0-0.001 0v0zM0 38.586v-85.318c0-9.434 7.648-17.082 17.082-17.082v0h238.918c9.434 0 17.082 7.648 17.082 17.082v0 85.318zM0 106.868h273.082v-34.118h-273.082zM307.2 106.868h221.882v-34.118h-221.882zM529.082 891.718v51.2c0.001 0.055 0.001 0.121 0.001 0.186 0 9.434-7.648 17.082-17.082 17.082 0 0-0.001 0-0.001 0h-187.718c0 0-0.001 0-0.001 0-9.434 0-17.082-7.648-17.082-17.082 0-0.065 0-0.131 0.001-0.196v0.010-51.2zM307.2 772.468h221.882v-631.482h-221.882zM307.2 38.586v-85.318c0-9.434 7.648-17.082 17.082-17.082v0h187.718c9.434 0 17.082 7.648 17.082 17.082v85.318zM307.2 857.786h221.882v-51.2h-221.882zM562.781 606.348l9.309-35.049 289.047 77.079-9.309 35.049zM705.396 59.718l289.047 77.079-18.292 70.144-289.047-77.079zM967.54 240.081l-97.745 375.482-289.047-77.079 97.745-375.482zM554.17 639.628l289.001 77.079-24.483 93.975c-2.11 7.437-8.84 12.794-16.821 12.794-1.481 0-2.919-0.184-4.292-0.532l0.121 0.026-256-68.282c-7.341-2.061-12.634-8.694-12.634-16.564 0-1.507 0.194-2.969 0.559-4.361l-0.027 0.12zM1003.055 103.936l-289.047-77.079 20.34-78.010c1.225-4.484 4.104-8.152 7.925-10.382l0.081-0.044c2.429-1.49 5.37-2.373 8.518-2.374v0c0.052 0 0.113-0.001 0.174-0.001 1.589 0 3.134 0.187 4.615 0.54l-0.135-0.027 256 68.282c7.338 2.081 12.624 8.722 12.624 16.597 0 1.495-0.191 2.946-0.549 4.329l0.026-0.12z" />
<glyph unicode="&#xe903;" glyph-name="prices" horiz-adv-x="1025" d="M1023.449 243.42l-0.593 1.059c-30.206 50.989-84.942 84.641-147.537 84.641-29.744 0-57.714-7.598-82.073-20.96l0.888 0.446-127.365-66.118c0.551-5.506 1.017-11.563 1.017-14.401-0.47-48.715-26.705-91.199-65.715-114.529l-0.615-0.341c-16.686-9.893-36.778-15.744-58.236-15.756h-0.004c-23.902 0.251-46.187 6.957-65.258 18.453l0.581-0.325-1.101 0.678-109.406 69.506c-8.46 5.419-13.986 14.771-13.986 25.414 0 16.614 13.468 30.082 30.082 30.082 5.971 0 11.536-1.74 16.215-4.74l-0.12 0.072 108.813-69.125c9.248-6.191 20.625-9.88 32.864-9.88 10.844 0 21.012 2.896 29.772 7.958l-0.287-0.153c16.587 10.129 28.765 26.088 33.767 44.967l0.118 0.523c0.821 3.971 1.291 8.534 1.291 13.208 0 26.287-14.873 49.1-36.663 60.482l-0.376 0.179-123.807 71.497c-11.82 8.707-26.67 13.935-42.741 13.935-0.014 0-0.027 0-0.041 0h-165.186v-283.489h19.145l237.617-137.488c12.916-7.889 28.493-12.659 45.164-12.918l0.072-0.001c0.056 0 0.122 0 0.188 0 14.637 0 28.279 4.262 39.752 11.613l-0.295-0.177 438.724 275.738c4.323 2.682 7.16 7.402 7.16 12.785 0 2.627-0.675 5.095-1.862 7.242l0.039-0.077zM148.246 462.274h-118.258c-16.562 0-29.988-13.426-29.988-29.988v0-417.8c0-16.562 13.426-29.988 29.988-29.988v0h118.258c16.562 0 29.988 13.426 29.988 29.988v417.8c0 16.562-13.426 29.988-29.988 29.988v0zM455.751 625.684c3.498-3.060 6.623-6.373 9.41-9.963l0.12-0.16c0.021-0.628 0.033-1.366 0.033-2.107 0-6.534-0.925-12.851-2.65-18.829l0.118 0.479c-2.511-7.65-3.96-16.454-3.96-25.597 0-12.643 2.77-24.638 7.735-35.414l-0.217 0.526c10.796-16.653 28.321-28.158 48.634-30.675l0.33-0.033c5.084-1 9.553-2.376 13.811-4.155l-0.469 0.174c3.432-5.446 6.192-11.751 7.944-18.464l0.104-0.469c4.731-20.947 16.702-38.536 33.087-50.403l0.247-0.17c9.041-4.773 19.759-7.574 31.132-7.574 9.627 0 18.785 2.007 27.078 5.626l-0.437-0.17c3.878 1.385 8.453 2.511 13.175 3.175l0.379 0.044c6.308-3.426 11.72-7.542 16.421-12.355l0.013-0.013c13.701-14.954 32.598-24.952 53.814-27.12l0.36-0.030h1.44c20.322 1.579 37.985 11.776 49.519 26.898l0.122 0.167c3.061 3.497 6.374 6.622 9.963 9.41l0.16 0.12c0.628 0.021 1.366 0.033 2.107 0.033 6.534 0 12.851-0.925 18.829-2.65l-0.479 0.118c7.647-2.502 16.446-3.945 25.583-3.945 12.646 0 24.646 2.764 35.429 7.721l-0.528-0.218c16.653 10.796 28.158 28.321 30.675 48.634l0.033 0.33c1 5.084 2.376 9.553 4.155 13.811l-0.174-0.469c5.446 3.427 11.751 6.186 18.461 7.943l0.472 0.105c20.939 4.751 38.523 16.716 50.403 33.088l0.17 0.246c4.773 9.041 7.574 19.759 7.574 31.132 0 9.627-2.007 18.785-5.626 27.078l0.17-0.437c-1.392 3.882-2.517 8.457-3.177 13.182l-0.043 0.372c3.426 6.308 7.542 11.72 12.355 16.421l0.013 0.013c14.954 13.701 24.952 32.598 27.12 53.814l0.030 0.36c-0.994 20.899-11.31 39.202-26.853 50.958l-0.17 0.123c-3.497 3.060-6.623 6.374-9.41 9.963l-0.12 0.16c-0.021 0.628-0.033 1.366-0.033 2.107 0 6.534 0.925 12.851 2.65 18.829l-0.118-0.479c2.502 7.647 3.945 16.446 3.945 25.583 0 12.646-2.764 24.646-7.721 35.429l0.218-0.528c-10.796 16.653-28.321 28.158-48.634 30.675l-0.33 0.033c-5.083 0.999-9.551 2.374-13.809 4.155l0.467-0.173c-3.432 5.446-6.192 11.751-7.944 18.464l-0.104 0.469c-4.731 20.947-16.702 38.536-33.087 50.403l-0.247 0.17c-9.041 4.773-19.759 7.574-31.132 7.574-9.627 0-18.785-2.007-27.078-5.626l0.437 0.17c-3.898-1.418-8.475-2.545-13.207-3.181l-0.347-0.038c-6.308 3.426-11.72 7.542-16.421 12.355l-0.013 0.013c-13.701 14.954-32.598 24.952-53.814 27.12l-0.36 0.030c-20.871-0.986-39.153-11.269-50.917-26.77l-0.122-0.168c-3.060-3.497-6.374-6.623-9.963-9.41l-0.16-0.12c-0.617-0.020-1.342-0.032-2.069-0.032-6.532 0-12.848 0.924-18.825 2.649l0.479-0.118c-7.647 2.502-16.446 3.945-25.583 3.945-12.646 0-24.646-2.764-35.429-7.721l0.528 0.218c-16.653-10.796-28.158-28.321-30.675-48.634l-0.033-0.33c-1-5.084-2.376-9.552-4.155-13.81l0.174 0.468c-5.446-3.431-11.751-6.191-18.463-7.943l-0.47-0.104c-20.947-4.731-38.536-16.702-50.403-33.087l-0.17-0.247c-4.773-9.041-7.574-19.759-7.574-31.132 0-9.627 2.007-18.785 5.626-27.078l-0.17 0.437c1.388-3.88 2.514-8.455 3.176-13.178l0.043-0.376c-3.426-6.308-7.542-11.72-12.355-16.421l-0.013-0.013c-14.954-13.701-24.952-32.598-27.12-53.814l-0.030-0.36c0.933-20.935 11.227-39.288 26.77-51.086l0.168-0.122zM806.036 637.925c9.010-5.285 14.964-14.924 14.964-25.953 0-16.562-13.426-29.988-29.988-29.988s-29.988 13.426-29.988 29.988c0 5.516 1.489 10.685 4.088 15.125l-0.077-0.142c5.28 9.033 14.931 15.005 25.977 15.005 5.533 0 10.716-1.498 15.165-4.111l-0.141 0.076zM732.675 770.668c5.283 9.034 14.937 15.007 25.985 15.007 16.569 0 30.001-13.432 30.001-30.001 0-5.52-1.491-10.693-4.092-15.136l0.077 0.142-91.997-159.386c-5.055-9.841-15.136-16.457-26.762-16.457-16.562 0-29.988 13.426-29.988 29.988 0 6.089 1.815 11.755 4.933 16.485l-0.070-0.113zM614.375 766.009c5.285 9.010 14.924 14.964 25.953 14.964 16.562 0 29.988-13.426 29.988-29.988s-13.426-29.988-29.988-29.988c-5.516 0-10.685 1.489-15.125 4.088l0.142-0.077c-8.98 5.293-14.91 14.915-14.91 25.922 0 5.555 1.51 10.757 4.143 15.219l-0.076-0.14z" />
<glyph unicode="&#xe904;" glyph-name="week" horiz-adv-x="1165" d="M34.071 140.8h892.183c0.004 0 0.008 0 0.012 0 8.342 0 15.986 2.99 21.918 7.956l-0.054-0.044c8.564 7.168 204.009 175.29 215.924 538.252h-958.185c-11.869-329.495-191.907-484.352-193.722-485.888-7.605-6.312-12.413-15.767-12.413-26.345 0-18.868 15.296-34.164 34.164-34.164 0.060 0 0.12 0 0.181 0h-0.009zM1130.915 891.718h-170.682v34.118c0 18.856-15.285 34.141-34.141 34.141s-34.141-15.285-34.141-34.141v0-34.118h-172.963v34.118c0 18.856-15.285 34.141-34.141 34.141s-34.141-15.285-34.141-34.141v-34.118h-170.589v34.118c0 18.856-15.285 34.141-34.141 34.141s-34.141-15.285-34.141-34.141v-34.118h-170.682c-0.097 0.001-0.212 0.002-0.327 0.002-18.663 0-33.792-15.129-33.792-33.792 0-0.115 0.001-0.23 0.002-0.345v0.018-102.4h957.999v102.4c0.001 0.097 0.002 0.212 0.002 0.327 0 18.663-15.129 33.792-33.792 33.792-0.115 0-0.23-0.001-0.345-0.002h0.018zM991.791 96.396c-17.667-14.812-40.642-23.814-65.719-23.831h-719.038v-102.4c0-18.843 15.275-34.118 34.118-34.118v0h889.763c18.843 0 34.118 15.275 34.118 34.118v0 382.604c-39.11-101.1-98.146-186.848-172.799-255.967l-0.443-0.405z" />
<glyph unicode="&#xe905;" glyph-name="web" d="M493.714 48.33v162.742c-37.296-1.67-74.154-8.708-109.44-20.9 24.978-76.216 64.622-130.104 109.44-141.842zM374.198 225.7c38.576 13.018 78.83 20.396 119.516 21.906v108.964h-136.686c1.044-44.11 6.8-87.982 17.17-130.87zM357.028 393.142h136.686v108.964c-40.688 1.522-80.942 8.914-119.516 21.942-10.374-42.896-16.13-86.782-17.17-130.906zM493.714 538.698v162.742c-44.818-11.74-84.462-65.628-109.44-141.916 35.29-12.166 72.148-19.18 109.44-20.826zM639.726 190.172c-35.288 12.172-72.148 19.194-109.44 20.846v-162.742c44.818 11.792 84.462 65.68 109.44 141.896zM649.802 524.014c-38.576-13.018-78.83-20.396-119.516-21.906v-108.964h136.686c-1.044 44.11-6.8 87.982-17.17 130.87zM666.972 356.572h-136.686v-108.964c40.688-1.522 80.942-8.914 119.516-21.942 10.374 42.896 16.13 86.782 17.17 130.906zM412.252 688.458c-47.46-15.236-90.84-41.052-126.866-75.502 19.958-15.656 41.632-28.992 64.604-39.754 12.992 42.132 34.148 81.294 62.262 115.256zM285.386 136.758c36.026-34.448 79.406-60.266 126.866-75.502-28.108 33.946-49.264 73.088-62.262 115.2-22.97-10.742-44.644-24.060-64.604-39.698zM703.524 393.142h136.686c-3.802 70.98-30.606 138.792-76.362 193.188-24.334-19.522-51.036-35.894-79.47-48.732 11.76-47.284 18.182-95.738 19.146-144.456zM339.62 537.6c-28.432 12.826-55.132 29.186-79.47 48.694-45.748-54.386-72.552-122.186-76.362-193.152h136.686c0.966 48.718 7.388 97.172 19.146 144.458zM684.38 212.114c28.432-12.826 55.132-29.186 79.47-48.694 45.748 54.386 72.552 122.186 76.362 193.152h-136.686c-0.966-48.718-7.388-97.172-19.146-144.458zM611.748 61.258c47.46 15.236 90.84 41.052 126.866 75.502-19.958 15.656-41.632 28.992-64.604 39.754-12.992-42.132-34.148-81.296-62.262-115.256zM969.142 960h-914.284c-30.298 0-54.858-24.56-54.858-54.858v-54.858h1024v54.858c0 30.298-24.56 54.858-54.858 54.858zM91.428 886.858h-18.286c-10.098 0-18.286 8.186-18.286 18.286 0 10.098 8.186 18.286 18.286 18.286h18.286c10.098 0 18.286-8.186 18.286-18.286s-8.186-18.286-18.286-18.286zM177.554 892.16c-1.778-1.614-3.82-2.912-6.034-3.84-4.428-1.95-9.47-1.95-13.898 0-2.216 0.928-4.256 2.226-6.034 3.84-7.072 7.21-7.072 18.756 0 25.966 1.778 1.614 3.82 2.912 6.034 3.84 4.414 2.012 9.484 2.012 13.898 0 2.216-0.928 4.256-2.226 6.034-3.84 7.072-7.21 7.072-18.756 0-25.966zM254.538 898.194c-0.928-2.216-2.226-4.256-3.84-6.034-7.21-7.072-18.756-7.072-25.966 0-1.614 1.778-2.912 3.82-3.84 6.034-1.952 4.426-1.952 9.47 0 13.898 0.928 2.216 2.226 4.256 3.84 6.034 5.232 5.274 13.134 6.86 19.996 4.012s11.316-9.566 11.274-16.994c0.062-2.4-0.44-4.78-1.464-6.95zM950.858 886.858h-621.716c-10.098 0-18.286 8.186-18.286 18.286 0 10.098 8.186 18.286 18.286 18.286h621.714c10.098 0 18.286-8.186 18.286-18.286s-8.186-18.286-18.284-18.286zM530.286 701.386v-162.742c37.296 1.67 74.154 8.708 109.44 20.9-24.978 76.214-64.622 130.102-109.44 141.842zM0-9.142c0-30.298 24.56-54.858 54.858-54.858h914.286c30.296 0 54.856 24.56 54.856 54.858v822.856h-1024v-822.856zM242.45 621.276l0.074-0.036c0.446 0.934 0.972 1.826 1.572 2.67 0.834 0.776 1.748 1.462 2.724 2.048 68.802 73.118 164.744 114.578 265.142 114.578s196.342-41.46 265.142-114.578c0.978-0.586 1.89-1.272 2.724-2.048 0.6-0.842 1.126-1.736 1.572-2.67 128.318-139.194 128.318-353.57 0-492.764-0.446-0.934-0.972-1.826-1.572-2.67-0.794-0.688-1.652-1.3-2.56-1.828-68.786-73.222-164.772-114.766-265.236-114.796-100.464-0.032-196.476 41.454-265.306 114.632-0.968 0.584-1.874 1.264-2.706 2.030-0.6 0.842-1.126 1.736-1.572 2.67-128.316 139.192-128.316 353.568 0.002 492.762zM339.62 212.114c-11.76 47.286-18.182 95.74-19.146 144.458h-136.684c3.802-70.98 30.606-138.792 76.362-193.188 24.334 19.52 51.034 35.894 79.468 48.73zM738.614 612.956c-36.026 34.448-79.406 60.266-126.866 75.502 28.108-33.946 49.264-73.088 62.262-115.2 22.97 10.742 44.644 24.060 64.604 39.698z" />
<glyph unicode="&#xe906;" glyph-name="landing-upload" d="M565.333-21.333h-106.667c-29.397 0-53.333 23.936-53.333 53.333v181.333h-96c-12.8 0-24.363 7.637-29.397 19.371s-2.603 25.387 6.187 34.688l202.667 213.333c12.075 12.715 34.347 12.715 46.421 0l202.667-213.333c8.789-9.259 11.264-22.912 6.229-34.688s-16.64-19.371-29.44-19.371h-96v-181.333c0-29.397-23.936-53.333-53.333-53.333zM796.715 749.781c-55.979 102.357-165.717 167.552-284.715 167.552-151.253 0-282.453-105.173-315.605-248.704-110.251-11.605-196.395-104.192-196.395-216.363 0-110.72 84.309-201.387 192.512-214.869-2.176 32.128 8.704 64.427 31.701 88.661l202.709 213.376c43.648 45.909 126.549 45.909 170.112 0l202.709-213.333c21.419-22.571 32.299-52.096 32-81.963 110.635 30.208 192.256 130.432 192.256 249.387 0 130.816-98.432 240-227.285 256.256z" />
<glyph unicode="&#xe907;" glyph-name="diamond" d="M512 960c-16.582 0-30-13.418-30-30v-62c0-16.582 13.418-30 30-30s30 13.418 30 30v62c0 16.582-13.418 30-30 30zM384.706 827.716l-42.422 42.422c-11.718 11.718-30.704 11.718-42.422 0s-11.718-30.704 0-42.422l42.422-42.422c11.718-11.718 30.702-11.718 42.422 0 11.718 11.718 11.718 30.704 0 42.422zM724.138 870.138c-11.718 11.718-30.702 11.72-42.422 0l-42.422-42.422c-11.718-11.718-11.718-30.704 0-42.422s30.704-11.718 42.422 0l42.422 42.422c11.718 11.718 11.718 30.704 0 42.422zM564.988 658l124.616-207.7 103.852 207.7zM512 629.7l-127.024-211.7h254.048zM373.612 358l138.388-417.136 138.388 417.136zM178.458 628.010l-105.002-210.010h210zM230.556 658l103.84-207.696 124.616 207.696zM845.544 628l-105-210h210zM310.39 358h-232.006l367.5-422h4.504zM713.61 358l-139.998-422h4.504l367.5 422z" />
<glyph unicode="&#xe908;" glyph-name="loader" d="M655.749 840.229c0-66.148-53.623-119.771-119.771-119.771s-119.771 53.623-119.771 119.771c0 66.148 53.623 119.771 119.771 119.771s119.771-53.623 119.771-119.771zM607.832 7.855c0-39.684-32.171-71.855-71.855-71.855s-71.855 32.171-71.855 71.855c0 39.684 32.171 71.855 71.855 71.855s71.855-32.171 71.855-71.855zM349.481 718.359c0-59.537-48.264-107.802-107.802-107.802s-107.802 48.264-107.802 107.802c0 59.537 48.264 107.802 107.802 107.802s107.802-48.264 107.802-107.802zM890.161 129.802c0-33.074-26.812-59.886-59.886-59.886s-59.886 26.812-59.886 59.886c0 33.074 26.812 59.886 59.886 59.886s59.886-26.812 59.886-59.886zM215.565 424.022c0-52.905-42.888-95.794-95.794-95.794s-95.794 42.888-95.794 95.794c0 52.905 42.888 95.794 95.794 95.794s95.794-42.888 95.794-95.794zM1000.022 424.061c0-26.442-21.435-47.877-47.877-47.877s-47.877 21.435-47.877 47.877c0 26.442 21.435 47.877 47.877 47.877s47.877-21.435 47.877-47.877zM182.416 188.988c-32.76-32.76-32.76-85.767 0-118.528 32.721-32.76 85.806-32.76 118.528 0 32.76 32.76 32.76 85.767 0 118.528-32.721 32.799-85.767 33.11-118.528 0zM866.145 718.359c0-19.831-16.077-35.908-35.908-35.908s-35.908 16.077-35.908 35.908c0 19.831 16.077 35.908 35.908 35.908s35.908-16.077 35.908-35.908z" />
<glyph unicode="&#xe909;" glyph-name="theme" d="M495.649 242.927c-109.522 0-198.33 88.808-198.33 198.33s88.808 198.33 198.33 198.33 198.33-88.808 198.33-198.33-88.808-198.33-198.33-198.33zM495.649 606.267c-91.188 0.044-165.143-73.911-165.187-165.099s73.911-165.143 165.099-165.187c0 0 0.044 0 0.088 0v330.286zM512 695.692c-18.246 0-33.055 14.809-33.055 33.055v198.198c0 18.246 14.809 33.055 33.055 33.055s33.055-14.809 33.055-33.055v-198.198c0-18.246-14.809-33.055-33.055-33.055zM512-64c-18.246 0-33.055 14.809-33.055 33.055v198.198c0 18.246 14.809 33.055 33.055 33.055s33.055-14.809 33.055-33.055v-198.198c0-18.246-14.809-33.055-33.055-33.055zM990.945 414.945h-198.198c-18.246 0-33.055 14.809-33.055 33.055s14.809 33.055 33.055 33.055h198.198c18.246 0 33.055-14.809 33.055-33.055s-14.809-33.055-33.055-33.055zM231.253 414.945h-198.198c-18.246 0-33.055 14.809-33.055 33.055s14.809 33.055 33.055 33.055h198.198c18.246 0 33.055-14.809 33.055-33.055s-14.809-33.055-33.055-33.055zM710.506 613.451c-8.462 0-16.924 3.217-23.359 9.696-12.913 12.913-12.913 33.848 0 46.762l140.197 140.153c12.913 12.913 33.848 12.913 46.762 0s12.913-33.848 0-46.762l-140.197-140.153c-6.479-6.479-14.941-9.696-23.403-9.696zM173.296 76.285c-8.462 0-16.924 3.217-23.359 9.696-12.913 12.913-12.913 33.848 0 46.762l140.153 140.153c12.913 12.913 33.848 12.913 46.762 0s12.913-33.848 0-46.762l-140.153-140.153c-6.479-6.435-14.941-9.696-23.403-9.696zM850.704 76.241c-8.462 0-16.924 3.217-23.359 9.696l-140.197 140.197c-12.913 12.913-12.913 33.848 0 46.762s33.848 12.913 46.762 0l140.197-140.197c12.913-12.913 12.913-33.848 0-46.762-6.523-6.435-14.941-9.696-23.403-9.696zM313.45 613.495c-8.462 0-16.924 3.217-23.359 9.696l-140.153 140.153c-12.913 12.913-12.913 33.848 0 46.762s33.848 12.913 46.762 0l140.153-140.153c12.913-12.913 12.913-33.848 0-46.762-6.479-6.479-14.941-9.696-23.403-9.696z" />
<glyph unicode="&#xe90a;" glyph-name="pdf-left-arrow" d="M739 903.68c10.895 0 19.743-8.806 19.763-19.681 0-5.243-2.089-10.281-5.796-13.967l-419.41-419.389 419.41-419.328c7.7-7.7 7.7-20.152 0-27.853s-20.152-7.7-27.873 0l-433.336 433.275c-7.68 7.68-7.68 20.152 0 27.832l433.316 433.316c3.686 3.707 8.704 5.796 13.926 5.796z" />
<glyph unicode="&#xe90b;" glyph-name="pdf-right-arrow" d="M305.746-2.314c-10.895 0-19.722 8.806-19.743 19.681 0 5.243 2.068 10.26 5.796 13.967l419.389 419.369-419.389 419.328c-7.7 7.7-7.7 20.173 0 27.873s20.173 7.7 27.873 0l433.316-433.295c7.68-7.68 7.68-20.152 0-27.832l-433.316-433.295c-3.686-3.727-8.704-5.796-13.926-5.796z" />
<glyph unicode="&#xe90c;" glyph-name="cap-small" d="M574.464 267.653c0-6.82-2.621-12.513-7.844-17.060-5.243-4.547-11.53-6.82-18.78-6.82-11.387 0-19.354 5.468-23.88 16.384l-48.476 110.572h-257.352l-49.152-110.572c-4.547-10.916-12.513-16.384-23.9-16.384-7.27 0-13.66 2.396-19.108 7.168-5.468 4.772-8.192 10.588-8.192 17.428 0 3.625 0.901 7.25 2.724 10.916l195.236 434.156c2.724 6.369 6.82 11.141 12.288 14.336 5.468 3.174 11.366 4.772 17.756 4.772 6.82 0 12.943-1.7 18.412-5.12s9.564-8.090 12.288-13.988l195.236-434.156c1.823-3.666 2.744-7.516 2.744-11.633zM238.592 417.157h216.392l-108.524 245.084-107.868-245.084zM906.22 456.765v-185.672c0-8.192-2.376-14.807-7.168-19.804s-11.284-7.496-19.456-7.496c-8.192 0-14.807 2.499-19.804 7.496-5.018 4.997-7.496 11.592-7.496 19.804v32.788c-8.663-19.599-21.832-34.714-39.608-45.425-17.736-10.67-38.216-16.036-61.44-16.036-21.402 0-41.083 4.342-59.044 12.984-17.981 8.643-32.195 20.705-42.66 36.188-10.486 15.483-15.708 32.543-15.708 51.18 0 25.047 6.369 44.503 19.128 58.388 12.718 13.885 33.669 23.88 62.771 30.024 29.123 6.164 69.632 9.236 121.528 9.236h15.012v22.528c0 27.3-5.571 47.329-16.732 60.068-11.141 12.739-29.245 19.108-54.252 19.108-30.966 0-62.362-8.438-94.228-25.252-12.268-7.741-20.91-11.592-25.928-11.592-5.468 0-10.015 2.028-13.66 6.124s-5.468 9.318-5.468 15.708 1.946 11.96 5.796 16.732 10.117 9.646 18.78 14.664c15.913 9.114 33.997 16.261 54.272 21.504 20.234 5.222 40.366 7.844 60.396 7.844 83.333-0.041 124.969-43.725 124.969-131.092zM826.020 313.733c17.49 18.432 26.276 42.23 26.276 71.332v19.804h-12.288c-40.059 0-70.554-1.7-91.484-5.12-20.931-3.4-35.84-9.093-44.728-17.060-8.888-7.987-13.312-19.702-13.312-35.185 0-17.715 6.492-32.42 19.456-44.012 12.984-11.592 29.245-17.408 48.824-17.408 27.32 0.020 49.746 9.216 67.256 27.648z" />
<glyph unicode="&#xe90d;" glyph-name="skroll-bottom" d="M532.398 253.44l4.157 486.093c0.123 12.677-10.076 23.040-22.774 23.142-12.657 0.102-23.040-10.097-23.142-22.753l-4.137-486.093-79.442 81.224c-8.888 9.052-23.429 9.196-32.481 0.348s-19.988-23.409-11.121-32.461l107.581-120.996c35.144-25.784 40.96-20.664 53.35-20.664h0.369l120.566 129.126c8.991 8.929 9.196 28.549 0.287 37.56s-23.409 11.674-32.42 2.785l-80.794-77.312zM819.2 919.040h-634.88v-942.080h634.88v942.080zM225.28 17.92v512h225.28v40.96h-225.28v307.2h552.96v-307.2h-225.28v-40.96h225.28v-512h-552.96z" />
<glyph unicode="&#xe90e;" glyph-name="skroll-left" d="M716.8 478.638l-486.093 4.157c-12.677 0.102-23.040-10.076-23.142-22.774-0.102-12.657 10.097-23.040 22.753-23.142l486.093-4.137-81.224-79.442c-9.052-8.888-9.196-23.429-0.348-32.481s23.409-14.868 32.461-6.001l120.996 112.701c23.224 26.89 17.244 30.72 10.424 43.11v0.369l-124.006 120.566c-8.929 9.011-25.989 9.196-35 0.287s-10.404-23.409-1.495-32.42l78.582-80.794zM40.96 775.68v-634.88h942.080v634.88h-942.080zM942.080 181.76h-512v225.28h-40.96v-225.28h-307.2v552.96h307.2v-225.28h40.96v225.28h512v-552.96z" />
<glyph unicode="&#xe90f;" glyph-name="access-control" d="M917.056 687.744h-417.216c-14.4 17.792-34.624 29.888-57.152 34.176v29.312c-0.032 36.096-29.28 65.376-65.376 65.408h-191.392c-36.128-0.032-65.408-29.312-65.408-65.408v-271.136c0-9.856 8-17.888 17.888-17.888s17.888 8.032 17.888 17.888v0 271.136c0 16.352 13.248 29.6 29.6 29.6h191.392c16.352-0.032 29.6-13.28 29.6-29.6v-521.696h-250.496v82.432c0 9.92-8.032 17.92-17.888 17.92s-17.888-8-17.888-17.888c0-0.032 0-0.032 0-0.032v-82.432h-41.28c-9.824 0-17.824-7.968-17.888-17.76v-100.256c0-9.856 8-17.92 17.888-17.92v0h400.96c9.888 0 17.888 8.064 17.888 17.92v0 100.256c0 9.856-8 17.888-17.888 17.888v0h-37.6v244.544l175.488-304c8.064-14.016 21.376-24.192 36.992-28.32 5.152-1.408 10.528-2.144 15.84-2.144 33.632 0.032 60.832 27.36 60.768 61.024-0.064 10.624-2.88 21.024-8.16 30.304l-132.544 229.568 229.632-132.544c9.184-5.376 19.648-8.16 30.304-8.16 5.376 0 10.656 0.672 15.84 2.080 32.448 8.736 51.744 42.048 43.072 74.528-4.192 15.648-14.432 28.928-28.384 36.992l-229.6 132.576h265.088c33.632 0 60.864 27.264 60.864 60.864s-27.232 60.864-60.864 60.864l0.032-0.096zM462.4 129.28h-365.152v64.416h365.152v-64.416zM485.696 626.88c-0.128-26.656-17.504-50.144-42.976-58.048v116.192c25.472-7.904 42.848-31.392 42.976-58.048v-0.128zM692.64 213.12c6.912-12 2.816-27.264-9.184-34.208s-27.328-2.816-34.208 9.152v0l-199.488 345.472c3.264 0.832 6.464 1.888 9.632 3.040l69.696-40.256 163.552-283.232zM863.712 402.56c12-6.976 16.128-22.272 9.184-34.272s-22.272-16.064-34.272-9.152l-345.568 199.424c2.368 2.4 4.64 4.928 6.752 7.584h80.512l283.36-163.584zM917.184 601.92h-399.008c4.416 16.416 4.416 33.696 0 50.112h398.912c13.856 0 25.056-11.2 25.056-25.056s-11.2-25.056-25.056-25.056v0h0.096zM210.016 601.824h143.232c9.888 0 17.92 8.032 17.92 17.92v85.92c0 9.856-8.032 17.888-17.92 17.888 0 0 0 0-0.032 0h-143.2c-9.856 0-17.888-8.032-17.888-17.888v-85.984c0.032-9.856 8.032-17.856 17.888-17.856zM227.904 687.744h107.392v-50.144h-107.392v50.144zM210.016 533.6h143.232c9.856 0.032 17.888 8.064 17.856 17.952s-8 17.856-17.856 17.888h-143.232c-9.888-0.032-17.888-8.064-17.856-17.952s8-17.824 17.856-17.888zM138.4 381.344c9.888 0 17.92 8 17.92 17.888s-8 17.92-17.888 17.92-17.92-8-17.92-17.888c0-4.704 1.888-9.28 5.248-12.672 3.36-3.328 7.904-5.216 12.672-5.248z" />
<glyph unicode="&#xe910;" glyph-name="action" d="M643.648 777.152c0-72.704-58.944-131.648-131.648-131.648s-131.648 58.944-131.648 131.648c0 72.704 58.944 131.648 131.648 131.648s131.648-58.944 131.648-131.648zM621.696 777.152c0-60.608-49.12-109.696-109.696-109.696s-109.696 49.12-109.696 109.696c0 60.576 49.12 109.696 109.696 109.696s109.696-49.12 109.696-109.696zM643.648 426.048c0-72.704-58.944-131.648-131.648-131.648s-131.648 58.944-131.648 131.648c0 72.704 58.944 131.648 131.648 131.648s131.648-58.944 131.648-131.648zM621.696 426.048c0-60.576-49.12-109.696-109.696-109.696s-109.696 49.12-109.696 109.696c0 60.576 49.12 109.696 109.696 109.696s109.696-49.12 109.696-109.696zM643.68 118.88c0-72.704-58.944-131.68-131.68-131.68s-131.68 58.944-131.68 131.68c0 72.704 58.944 131.68 131.68 131.68s131.68-58.944 131.68-131.68zM621.696 118.88c0-60.576-49.12-109.696-109.696-109.696s-109.696 49.12-109.696 109.696c0 60.576 49.12 109.696 109.696 109.696s109.696-49.12 109.696-109.696z" />
<glyph unicode="&#xe911;" glyph-name="analiytics" d="M907.808 900.384h-791.68c-31.2 0-56.512-25.344-56.512-56.512v-791.68c0-31.2 25.312-56.512 56.512-56.512h791.68c31.264 0 56.576 25.28 56.576 56.512v791.68c0 31.264-25.312 56.512-56.576 56.512zM907.808 23.84v28.32h-791.68v242.784l161.6 161.536c29.568-14.528 64.96-10.112 90.080 11.232l145.952-87.584c-1.152-5.6-1.728-11.296-1.728-16.928-0.48-46.816 37.12-85.184 84-85.664 46.816-0.48 85.184 37.12 85.696 84 0.096 13.184-2.848 26.208-8.608 37.984l121.6 121.632v-101.44c-0.672-15.584 11.424-28.768 27.040-29.472s28.832 11.456 29.504 27.008c0 0.832 0 1.664 0 2.464v169.664c0 15.616-12.672 28.288-28.288 28.288v0h-169.568c-15.616-0.672-27.68-13.92-27.008-29.504 0.64-14.624 12.384-26.368 27.008-27.008h101.44l-121.6-121.632c-29.568 14.528-64.896 10.112-90.016-11.2l-145.952 87.584c1.12 5.6 1.664 11.264 1.664 16.928 0.48 46.816-37.12 85.184-83.936 85.664-46.88 0.48-85.184-37.184-85.664-84-0.16-13.152 2.784-26.208 8.544-38.016l-121.728-121.632v469.024h791.68v-820.032zM285.824 532.8c0 15.616 12.704 28.288 28.288 28.288s28.256-12.704 28.256-28.288-12.64-28.288-28.256-28.288v0c-15.616 0.032-28.288 12.672-28.288 28.288zM568.576 363.136c0 15.616 12.704 28.288 28.32 28.288s28.288-12.672 28.288-28.288-12.672-28.32-28.288-28.32-28.32 12.704-28.352 28.32h0.032z" />
<glyph unicode="&#xe912;" glyph-name="arrow-back" d="M51.232 447.072c2.816-2.080 5.536-4.288 8.096-6.688 117.696-117.664 235.36-235.328 352.992-353.12 2.016-2.368 3.744-4.928 5.216-7.648l65.408 65.568-256.352 256.384c5.376 0.352 7.904 0.672 10.432 0.672h728.576c2.432 0 4.768 0 7.2-0.352v93.6c-31.488 0-62.944-0.352-94.432-0.352h-648.16l254.4 254.176-67.2 66.944c-16.928-17.312-35.072-35.872-53.44-54.336-101.504-101.632-203.104-203.232-304.672-304.8-2.464-2.464-5.44-4.48-8.128-6.72l0.064-3.36z" />
<glyph unicode="&#xe913;" glyph-name="arrow-left" d="M757.376 98.304c27.328-27.712 27.328-72.288 0-99.968-26.88-27.328-70.816-27.68-98.176-0.864-0.352 0.352-0.608 0.608-0.864 0.864l-391.744 399.68c-27.392 27.776-27.392 72.288 0 100.064l391.744 399.68c26.976 27.328 71.2 27.584 98.528 0.608 0.16-0.256 0.352-0.416 0.48-0.608 27.328-27.68 27.328-72.288 0-99.968l-321.184-349.984 321.216-349.44z" />
<glyph unicode="&#xe914;" glyph-name="banner-people" d="M976.96 240.448c-8.448-45.824-31.232-87.712-65.12-119.68-79.68-71.264-201.984-64.512-273.28 15.072-71.296 79.68-64.544 201.984 15.040 273.28 25.728 23.040 57.12 38.816 90.912 45.6 103.872 21.76 205.728-44.736 227.488-148.608 0.32-1.312 0.512-2.656 0.8-3.968 1.056-3.616 2.4-7.136 4.128-10.496v-51.168zM827.552 371.008c-43.744 19.712-95.136 9.76-128.256-24.864-27.648-28.256-46.496-84.448-21.76-125.248l150.048 150.112zM889.76 308.032l-151.008-148.512c44.448-20.16 96.864-9.44 129.792 26.592 31.2 32.576 39.552 80.704 21.184 121.92zM47.040 142.88c3.712 14.912 6.976 29.888 11.232 44.576 32.768 111.968 134.016 189.888 250.624 192.96 53.44 1.44 106.752 0.768 160.16 0.48 20.672 2.752 39.68-11.744 42.496-32.448 0.256-1.92 0.384-3.84 0.32-5.728-0.128-22.944-16.288-37.152-43.232-37.856-60.288-1.28-120.896 1.28-180.768-4.416-89.216-12.16-157.312-85.92-162.208-175.904 0-0.736 0-1.536 0-2.336-0.192-21.408-5.12-40.992-27.904-48.224-20.064-5.76-41.44 3.648-50.72 22.4v46.496zM241.568 652.416c0.128 106.752 86.784 193.216 193.536 193.056s193.184-86.784 193.056-193.536c-0.128-106.752-86.72-193.216-193.536-193.056-106.752 0.128-193.184 86.784-193.056 193.536zM550.016 651.84c0.992 64-50.080 116.64-114.112 117.632-0.352 0-0.672 0-0.992 0-64.192-0.8-116.128-52.576-117.12-116.768 0.224-64 52.256-115.712 116.256-115.52 0.352 0 0.704 0 1.056 0 63.008-0.416 114.464 50.304 114.848 113.312 0 0.448 0 0.896 0 1.344l0.096 0.032z" />
<glyph unicode="&#xe915;" glyph-name="calendar" d="M816.224 809.888h-27.84v30.368c0 38.432-30.336 69.728-67.68 69.728s-67.712-31.264-67.712-69.728v-30.336h-69.472v30.336c0 38.432-30.304 69.728-67.68 69.728-37.344 0-67.68-31.264-67.68-69.728v-30.336h-69.472v30.336c0 38.432-30.336 69.728-67.68 69.728s-67.68-31.264-67.68-69.728v-30.336h-35.52c-59.424 0-107.744-48.32-107.744-107.744v-608.384c0-59.392 48.32-107.744 107.744-107.744h608.416c59.424 0 107.744 48.32 107.744 107.744v608.384c0 59.36-48.352 107.712-107.744 107.712zM691.072 840.256c0 17.44 13.312 31.68 29.664 31.68 16.384 0 29.664-14.24 29.664-31.68v-124.128c0-17.472-13.28-31.68-29.664-31.68-16.352 0-29.664 14.24-29.664 31.68v124.128zM486.208 840.256c0 17.44 13.312 31.68 29.664 31.68s29.664-14.24 29.664-31.68v-124.128c0-17.472-13.28-31.68-29.664-31.68s-29.664 14.24-29.664 31.68v124.128zM281.344 840.256c0 17.44 13.312 31.68 29.664 31.68s29.664-14.24 29.664-31.68v-124.128c0-17.472-13.28-31.68-29.664-31.68s-29.664 14.24-29.664 31.68v124.128zM860.608 93.728c0-24.448-19.936-44.352-44.384-44.352h-608.416c-24.48 0-44.352 19.904-44.352 44.352v557.696h697.152v-557.696zM220.512 539.2h116.48v-103.68h-116.48v103.68zM375.968 539.2h116.48v-103.68h-116.48v103.68zM531.552 539.2h116.48v-103.68h-116.48v103.68zM687.008 539.2h116.544v-103.68h-116.544v103.68zM220.512 400.832h116.48v-103.584h-116.48v103.584zM375.968 400.832h116.48v-103.584h-116.48v103.584zM531.552 400.832h116.48v-103.584h-116.48v103.584zM687.008 400.832h116.544v-103.584h-116.544v103.584zM220.512 262.528h116.48v-103.584h-116.48v103.584zM375.968 262.528h116.48v-103.584h-116.48v103.584zM531.552 262.528h116.48v-103.584h-116.48v103.584zM687.008 262.528h116.544v-103.584h-116.544v103.584z" />
<glyph unicode="&#xe916;" glyph-name="camera" d="M947.584 700.832c-18.624 19.552-44.352 31.040-73.632 31.040h-147.264v1.792c0 22.176-8.896 43.488-23.968 57.664-15.104 15.072-35.52 23.968-57.696 23.968h-266.144c-23.072 0-43.488-8.864-58.56-23.936s-23.936-35.488-23.936-57.664v-1.792h-146.4c-29.28 0-55.008-11.52-73.632-31.040-18.624-18.624-31.040-45.248-31.040-73.632v-441.792c0-29.28 11.52-55.008 31.040-73.632 18.624-18.624 45.248-31.040 73.632-31.040h723.936c29.28 0 55.008 11.52 73.632 31.040 18.624 18.624 31.072 45.248 31.072 73.632v441.76c-0.032 29.28-11.52 55.008-31.072 73.632zM932.48 185.408h-0.896c0-15.968-6.208-30.176-16.864-40.8-10.656-10.656-24.832-16.864-40.8-16.864h-723.936c-15.968 0-30.176 6.208-40.832 16.864s-16.864 24.832-16.864 40.8v441.792c0 15.968 6.208 30.176 16.864 40.832s24.832 16.864 40.832 16.864h171.2c13.312 0 23.936 10.656 23.936 23.968v25.728c0 9.76 3.552 18.624 9.76 24.832s15.104 9.76 24.832 9.76h265.248c9.792 0 18.624-3.552 24.864-9.76s9.76-15.072 9.76-24.832v-25.728c0-13.312 10.656-23.968 23.968-23.968h171.2c15.968 0 30.176-6.208 40.8-16.864s16.864-24.832 16.864-40.832v-441.792zM512 624.544c-60.32 0-115.328-24.832-154.368-63.872-39.904-39.904-63.872-94.048-63.872-154.368s24.832-115.328 63.872-154.368c39.904-39.904 94.016-63.872 154.368-63.872s115.328 24.832 154.368 63.872c39.904 39.904 63.872 94.048 63.872 154.368s-24.832 115.328-63.872 154.368c-39.040 39.040-94.016 63.872-154.368 63.872zM632.672 284.768c-31.072-30.176-73.632-49.664-120.672-49.664s-89.6 19.488-120.64 49.664c-31.040 31.040-49.696 73.632-49.696 120.672s19.52 89.6 49.696 120.64c31.040 31.040 73.632 49.696 120.64 49.696s89.6-19.52 120.672-49.696c31.040-31.040 49.664-73.632 49.664-120.64 0.896-47.008-18.624-89.632-49.664-120.672zM871.296 581.952c0-24-19.456-43.488-43.488-43.488s-43.488 19.456-43.488 43.488c0 24 19.456 43.488 43.488 43.488s43.488-19.456 43.488-43.488z" />
<glyph unicode="&#xe917;" glyph-name="card" d="M828 735.84h-632c-79.936-0.096-144.704-64.896-144.8-144.8v-275.776c0.096-79.968 64.896-144.768 144.8-144.832h632c79.936 0.096 144.704 64.864 144.8 144.832v275.776c-0.096 79.936-64.864 144.704-144.8 144.8zM196 680.544h632c39.296-0.064 73.984-25.664 85.632-63.168h-803.296c11.616 37.568 46.336 63.232 85.632 63.296v-0.128zM917.632 314.944c-0.096-49.472-40.16-89.568-89.632-89.632h-632c-49.536 0.128-89.6 40.384-89.504 89.952v128.64h811.040l0.128-128.96zM917.632 498.848h-811.136v63.136h811.040v-63.136h0.128zM841.408 347.52h-121.44c-15.232-0.096-27.616-12.48-27.52-27.744 0.032-15.2 12.384-27.552 27.52-27.552h121.472c15.232 0 27.616 12.448 27.552 27.744-0.096 15.168-12.384 27.456-27.552 27.552v0z" />
<glyph unicode="&#xe918;" glyph-name="close" d="M587.584 442.528l321.216 321.216c20.896 20.896 20.896 54.656 0 75.584s-54.688 20.896-75.584 0l-321.216-321.216-321.216 321.216c-20.896 20.896-54.656 20.896-75.584 0s-20.896-54.656 0-75.584l321.216-321.216-321.216-321.216c-20.896-20.896-20.896-54.688 0-75.584 10.432-10.4 24.096-15.68 37.792-15.68s27.328 5.248 37.76 15.68l321.216 321.248 321.216-321.248c10.432-10.4 24.096-15.68 37.792-15.68 13.664 0 27.36 5.248 37.792 15.68 20.896 20.896 20.896 54.688 0 75.584l-321.248 321.216z" />
<glyph unicode="&#xe919;" glyph-name="correct" d="M375.040 129.312c-11.456 0-22.912 4.352-31.648 13.12l-273.92 273.952c-17.504 17.504-17.504 45.728 0 63.232s45.728 17.504 63.232 0l242.304-242.304 516.288 516.288c17.504 17.504 45.76 17.504 63.232 0s17.504-45.728 0-63.232l-547.904-547.936c-8.704-8.736-20.192-13.12-31.616-13.12z" />
<glyph unicode="&#xe91a;" glyph-name="coupon-icon" d="M571.168 632.48c-47.36 0-85.888-35.456-85.888-79.040s38.528-79.072 85.888-79.072c47.36 0 85.888 35.456 85.888 79.072s-38.496 79.040-85.888 79.040zM571.168 527.040c-15.776 0-28.608 11.84-28.608 26.368s12.832 26.368 28.608 26.368 28.608-11.808 28.608-26.368-12.832-26.368-28.608-26.368zM800.16 421.632c-47.36 0-85.888-35.456-85.888-79.040s38.528-79.040 85.888-79.040 85.888 35.456 85.888 79.040-38.496 79.040-85.888 79.040zM800.16 316.224c-15.776 0-28.608 11.808-28.608 26.368s12.832 26.368 28.608 26.368 28.608-11.808 28.608-26.368-12.832-26.368-28.608-26.368zM816.064 628.064c-13.184 8.064-30.912 4.8-39.68-7.296l-229.024-316.288c-8.8-12.096-5.216-28.48 7.936-36.544s30.912-4.8 39.68 7.296l229.024 316.256c8.768 12.128 5.216 28.48-7.936 36.544zM971.936 737.888h-919.872c-15.808 0-28.64-11.808-28.64-26.368v-158.112c0-14.56 12.832-26.368 28.64-26.368 47.36 0 85.888-35.456 85.888-79.040s-38.528-79.040-85.888-79.040c-15.808 0-28.64-11.808-28.64-26.368v-158.112c0-14.56 12.832-26.368 28.64-26.368h919.872c15.776 0 28.608 11.808 28.608 26.368v527.104c0 14.56-12.832 26.336-28.608 26.336zM943.328 210.816h-633.632v26.368c0 14.528-12.8 26.368-28.64 26.368s-28.608-11.808-28.608-26.368v-26.368h-171.776v108.064c65.248 12.256 114.496 65.504 114.496 129.152s-49.248 116.864-114.496 129.12v108.064h174.144v-26.368c0-14.56 12.832-26.368 28.64-26.368s28.64 11.808 28.64 26.368v26.368h631.232v-474.368zM971.936 149.088h-919.872c-21.184 0-38.4 15.84-38.4 35.36v158.112c0 19.488 17.216 35.36 38.4 35.36 41.952 0 76.096 31.424 76.096 70.048s-34.144 70.048-76.096 70.048c-21.184 0-38.4 15.84-38.4 35.36v158.112c0 19.488 17.216 35.36 38.4 35.36h919.872c21.152 0 38.4-15.84 38.4-35.36v-527.104c0-19.488-17.248-35.36-38.4-35.36zM52.064 728.896c-10.4 0-18.848-7.776-18.848-17.376v-158.112c0-9.6 8.448-17.376 18.848-17.376 52.736 0 95.648-39.52 95.648-88.064s-42.912-88.064-95.648-88.064c-10.4 0-18.848-7.776-18.848-17.376v-158.112c0-9.6 8.448-17.376 18.848-17.376h919.872c10.4 0 18.848 7.776 18.848 17.376v527.136c0 9.568-8.448 17.376-18.848 17.376h-919.872zM953.088 201.824h-653.152v35.36c0 9.6-8.448 17.376-18.848 17.376s-18.848-7.776-18.848-17.376v-35.36h-191.328v124.384l7.808 1.472c61.824 11.616 106.688 62.208 106.688 120.32s-44.864 108.704-106.688 120.32l-7.808 1.472v124.384h193.696v-35.36c0-9.6 8.448-17.376 18.848-17.376s18.848 7.776 18.848 17.376v35.36h650.752v-492.384zM319.456 219.776h614.080v456.416h-611.68v-17.376c0-19.488-17.216-35.36-38.4-35.36s-38.4 15.84-38.4 35.36v17.376h-154.592v-91.904c66.816-15.968 114.496-72.128 114.496-136.288s-47.712-120.288-114.496-136.288v-91.904h152.224v17.376c0 19.488 17.216 35.36 38.4 35.36s38.4-15.872 38.4-35.36v-17.408zM281.056 421.632c-15.808 0-28.608-11.808-28.608-26.336v-52.704c0-14.528 12.8-26.368 28.608-26.368s28.64 11.808 28.64 26.368v52.704c0 14.528-12.8 26.336-28.64 26.336zM281.056 579.776c-15.808 0-28.608-11.808-28.608-26.368v-52.704c0-14.56 12.8-26.368 28.608-26.368s28.64 11.808 28.64 26.368v52.704c0 14.56-12.8 26.368-28.64 26.368z" />
<glyph unicode="&#xe91b;" glyph-name="coupons" d="M689.472 527.52c5.888-5.888 5.888-15.424 0-21.312l-147.552-147.584c-2.976-2.944-6.784-4.416-10.656-4.416-13.312 0-20.16 16.224-10.656 25.728l147.552 147.552c5.888 5.888 15.456 5.888 21.344 0.032v0zM683.744 404.064c16.448 0 29.824-13.376 29.824-29.824s-13.376-29.824-29.824-29.824-29.824 13.376-29.824 29.824 13.376 29.824 29.824 29.824v0zM683.424 374.208c0-0.384 0.64-0.384 0.64 0s-0.64 0.352-0.64 0zM566.016 521.792c0-16.448-13.376-29.824-29.824-29.824s-29.824 13.408-29.824 29.824 13.376 29.824 29.824 29.824c16.448-0.032 29.824-13.408 29.824-29.824v0zM536.16 522.112c-0.416 0-0.416-0.64 0-0.64s0.416 0.64 0 0.64zM903.84 745.632h-479.424c-8.32 0-15.072-6.752-15.072-15.072s6.752-15.072 15.072-15.072h479.424c16.608 0 30.144-13.504 30.144-30.144v-474.72c0-16.64-13.536-30.144-30.144-30.144h-568.928v31.904c0 8.32-6.752 15.072-15.072 15.072s-15.072-6.752-15.072-15.072v-31.904h-184.608c-16.64 0-30.144 13.504-30.144 30.144v83.008c0 11.168 5.952 21.248 15.488 26.336 102.304 54.624 102.272 201.44 0 256.032-9.568 5.088-15.488 15.2-15.488 26.336v83.040c0 16.64 13.504 30.144 30.144 30.144h184.608v-31.904c0-8.32 6.752-15.072 15.072-15.072s15.072 6.752 15.072 15.072v46.976c0 8.32-6.752 15.072-15.072 15.072h-199.68c-33.248 0-60.288-27.040-60.288-60.288v-83.008c0-22.272 12.032-42.592 31.424-52.928 81.056-43.264 81.056-159.584 0-202.88-19.392-10.336-31.424-30.624-31.424-52.928v-83.008c0-33.248 27.040-60.288 60.288-60.288h783.68c33.248 0 60.288 27.040 60.288 60.288v474.72c0 33.248-27.040 60.288-60.288 60.288zM334.944 569.728c0 8.32-6.752 15.072-15.072 15.072s-15.072-6.752-15.072-15.072v-58.976c0-8.32 6.752-15.072 15.072-15.072s15.072 6.752 15.072 15.072v58.976zM319.872 400.352c-8.32 0-15.072-6.752-15.072-15.040v-59.008c0-8.32 6.752-15.072 15.072-15.072s15.072 6.752 15.072 15.072v59.008c0 8.32-6.752 15.040-15.072 15.040z" />
<glyph unicode="&#xe91c;" glyph-name="dashboard" d="M406.208 601.856h-288.448c-37.152 0.032-67.264 30.112-67.328 67.264v173.056c0.032 37.184 30.144 67.296 67.328 67.328h288.448c37.152-0.032 67.232-30.176 67.264-67.328v-173.056c-0.064-37.12-30.144-67.2-67.264-67.264zM117.792 851.808c-5.312 0-9.632-4.288-9.632-9.632v0-173.056c0-5.312 4.288-9.632 9.632-9.632h288.448c5.312 0 9.632 4.288 9.632 9.632v173.056c0 5.312-4.288 9.632-9.632 9.632h-288.448zM406.208-13.504h-288.448c-37.12 0-67.232 30.080-67.328 67.2v403.84c0.032 37.152 30.144 67.296 67.328 67.328h288.448c37.152-0.032 67.232-30.176 67.264-67.328v-403.84c-0.096-37.12-30.176-67.136-67.264-67.2zM117.792 467.2c-5.312 0-9.632-4.288-9.632-9.632 0-0.032 0-0.032 0-0.064v-403.84c0-5.344 4.288-9.632 9.632-9.632v0h288.448c5.312 0 9.632 4.288 9.632 9.632v0 403.84c0 5.312-4.288 9.632-9.632 9.632v0l-288.448 0.064zM906.272-13.504h-288.448c-37.184 0-67.328 30.208-67.328 67.328v173.056c0 37.184 30.144 67.328 67.328 67.328h288.448c37.184 0 67.328-30.144 67.328-67.328v-173.056c0-37.12-30.144-67.328-67.328-67.328zM617.824 236.448c-5.376 0-9.632-4.352-9.632-9.632v-173.056c0-5.312 4.288-9.632 9.632-9.632h288.448c5.344 0 9.632 4.352 9.632 9.632v173.056c0 5.312-4.288 9.632-9.632 9.632h-288.448zM906.272 371.104h-288.448c-37.184 0.064-67.328 30.144-67.328 67.328v403.84c0.064 37.152 30.208 67.232 67.328 67.264h288.448c37.184-0.032 67.328-30.144 67.328-67.328v-403.808c-0.064-37.12-30.208-67.2-67.328-67.264zM617.824 851.808c-5.376 0-9.632-4.288-9.632-9.632v-403.808c0-5.312 4.288-9.632 9.632-9.632h288.448c5.344 0 9.632 4.288 9.632 9.632v403.808c0 5.312-4.288 9.632-9.632 9.632h-288.448z" />
<glyph unicode="&#xe91d;" glyph-name="delete" d="M163.488 99.456c0-64.128 52.032-116.16 116.16-116.16h464.672c64.16 0 116.192 52.032 116.192 116.16v580.864h-697.024v-580.864zM628.192 854.624v58.080h-232.352v-58.080h-290.432v-116.16h813.184v116.16h-290.4z" />
<glyph unicode="&#xe91e;" glyph-name="dis-like" d="M974.4 363.936h-168.16v504.384h168.16v-504.384zM49.664 490.080v-80.512l0.416-0.416-0.416-3.168c0-46.432 37.6-84.064 84.064-84.064h265.472l-40.16-192.064c-0.832-4.224-1.44-8.608-1.44-13.248 0-17.44 7.168-33.184 18.496-44.576l44.704-44.352 276.768 276.832c15.168 15.328 24.608 36.32 24.608 59.424v420.32c0 46.432-37.568 84.064-84.064 84.064h-378.272c-34.912 0-64.704-21.248-77.344-51.264l-126.688-296.32c-3.808-9.696-6.112-20-6.144-30.656v0z" />
<glyph unicode="&#xe91f;" glyph-name="dis-like-border" d="M912.928 806.88v-381.504h-45.216v381.504h45.216zM806.24 363.936h168.16v504.384h-168.16v-504.384zM259.776 806.912h378.272c12.512 0 22.624-10.144 22.624-22.624v-420.288c0-8.128-4.32-13.696-6.88-16.288l-233.248-233.28-1.248 1.28c-0.352 0.32-0.352 0.704-0.352 0.896 0.032 0.064 0.16 0.576 0.224 0.992l55.552 265.76h-340.992c-11.52 0-21.088 8.672-22.4 19.872l3.68 27.872-3.872 3.872v55.040c0 2.176 0.576 4.704 1.632 7.52l126.24 295.328c2.816 6.624 9.824 13.984 20.864 13.984l-0.096 0.064zM259.808 868.352v0c-34.88 0-64.736-21.248-77.344-51.264l-126.688-296.32c-3.808-9.696-6.112-20-6.112-30.688v-80.512l0.416-0.416-0.416-3.168c0-46.432 37.6-84.064 84.064-84.064h265.472l-40.16-192.064c-0.832-4.256-1.44-8.64-1.44-13.248 0-17.44 7.168-33.184 18.496-44.576l44.704-44.352 276.768 276.768c15.168 15.328 24.608 36.384 24.608 59.456v420.352c0 46.432-37.568 84.064-84.064 84.064l-378.304 0.032z" />
<glyph unicode="&#xe920;" glyph-name="drop-down-arrow" d="M953.664 690.272c26.816-26.368 27.232-69.504 0.832-96.384-0.192-0.32-0.512-0.64-0.832-0.928l-392.512-384.768c-27.232-26.88-71.072-26.88-98.272 0l-392.608 384.352c-26.848 26.592-27.168 69.92-0.64 96.704 0.192 0.192 0.416 0.416 0.64 0.64 27.232 27.328 449.184 15.712 449.184 15.712s407.2 11.616 434.208-15.296z" />
<glyph unicode="&#xe921;" glyph-name="edit" d="M147.456 274.848l-91.136-282.528 282.528 91.104zM849.44 591.648l-444.64-444.64-193.312 193.312 444.64 444.64 193.312-193.312zM953.984 762.432l-127.584 127.584c-18.208 18.24-45.568 18.24-63.744 0l-41.056-40.992 191.392-191.392 40.992 40.992c18.24 18.24 18.24 45.6 0 63.808z" />
<glyph unicode="&#xe922;" glyph-name="email" d="M816.512 665.12l-296.8-261.536-296.832 261.536c-11.808 10.4-29.824 9.248-40.256-2.528s-9.248-29.824 2.528-40.256l315.712-277.984c10.784-9.472 26.912-9.472 37.696 0l315.648 277.984c11.776 10.432 12.928 28.448 2.528 40.256-10.432 11.808-28.448 12.928-40.256 2.528v0zM892.384 786.304h-745.408c-47.232 0-85.536-38.304-85.536-85.536v-452.416c0-47.264 38.304-85.568 85.536-85.568h745.408c47.232 0 85.536 38.304 85.536 85.568v452.416c0 47.232-38.304 85.536-85.536 85.536zM920.896 248.32c0-15.744-12.768-28.544-28.512-28.544h-745.408c-15.744 0-28.48 12.768-28.48 28.544v452.416c0.096 15.68 12.832 28.352 28.48 28.352h745.408c15.744-0.032 28.512-12.768 28.512-28.512v-452.288z" />
<glyph unicode="&#xe923;" glyph-name="eye-closed" d="M986.912 461.216c-58.464 76.576-128.64 143.456-207.968 198.080l135.712 135.712c13.696 13.216 14.080 34.976 0.864 48.64s-34.976 14.048-48.64 0.864c-0.32-0.288-0.576-0.544-0.832-0.864l-148.288-148.128c-63.104 34.752-133.696 53.632-205.728 55.040-261.376 0-466.336-277.472-474.944-289.312-8.768-12.064-8.768-28.384 0-40.448 58.464-76.576 128.64-143.456 208-198.080l-135.712-135.712c-13.664-13.216-14.048-34.976-0.832-48.64s34.944-14.080 48.64-0.864c0.288 0.32 0.576 0.576 0.864 0.864l148.288 148.128c63.104-34.72 133.728-53.632 205.728-55.040 261.376 0 466.336 277.472 474.912 289.312 8.768 12.096 8.768 28.416-0.032 40.448zM295.072 272.64c-70.048 46.624-132.864 103.392-186.368 168.384 50.624 61.344 214.816 240.768 403.296 240.768 53.632-1.12 106.336-14.016 154.368-37.856l-59.712-59.712c-78.976 52.448-185.536 30.912-237.984-48.064-38.208-57.536-38.208-132.384 0-189.92l-73.6-73.6zM604.864 485.216c6.752-13.76 10.272-28.864 10.336-44.192 0-56.992-46.176-103.168-103.168-103.168-15.328 0.064-30.432 3.584-44.192 10.336l137.056 137.056zM419.136 396.832c-6.752 13.76-10.272 28.896-10.336 44.192 0 56.96 46.208 103.168 103.168 103.168 15.328-0.064 30.432-3.584 44.192-10.336l-137.056-137.056zM512 200.256c-53.632 1.12-106.336 14.016-154.4 37.856l59.712 59.712c78.976-52.448 185.568-30.912 238.016 48.096 38.208 57.536 38.208 132.384 0 189.92l73.6 73.6c70.048-46.688 132.864-103.392 186.4-168.384-50.656-61.344-214.848-240.768-403.328-240.768z" />
<glyph unicode="&#xe924;" glyph-name="eye-icon" d="M990.464 459.872c-8.64 11.84-214.944 290.048-478.464 290.048s-469.824-278.176-478.464-290.016c-8.224-11.232-8.224-26.496 0-37.728 8.64-11.872 214.944-290.048 478.464-290.048s469.824 278.176 478.464 290.016c8.224 11.232 8.224 26.496 0 37.728zM512.032 196.064c-194.112 0-362.24 184.608-411.968 244.992 49.696 60.416 217.472 244.96 411.968 244.96 194.080 0 362.176-184.608 411.968-244.992-49.728-60.384-217.472-244.928-411.968-244.928zM512.032 632.736c-105.728 0-191.744-86.016-191.744-191.744s86.016-191.744 191.744-191.744 191.744 86.016 191.744 191.744c0 105.728-86.016 191.744-191.744 191.744zM512.032 313.216c-70.464 0-127.808 57.344-127.808 127.808s57.344 127.808 127.808 127.808c70.464 0 127.808-57.312 127.808-127.808s-57.344-127.808-127.808-127.808z" />
<glyph unicode="&#xe925;" glyph-name="facebook" d="M583.392-13.056v420.448h141.024l21.376 163.872h-162.4v104.416c0 47.424 13.12 79.776 81.216 79.776h86.72v146.816c-42.016 4.416-84.192 6.56-126.368 6.432-108.768 7.872-203.36-73.824-211.264-182.624-0.832-11.328-0.672-22.624 0.48-33.952v-120.896h-141.44v-163.872h141.504v-420.416h169.184z" />
<glyph unicode="&#xe926;" glyph-name="filter" d="M751.872 554.592c69.76 0.096 130.24 48.224 146.048 116.192h39.456c18.56-1.056 34.56 13.216 35.52 31.872 1.088 18.624-13.216 34.56-31.84 35.584-1.28 0.032-2.528 0.032-3.744 0h-39.488c-18.688 80.64-99.232 130.848-179.84 112.16-55.776-12.928-99.296-56.448-112.224-112.16h-518.912c-18.592-1.056-32.896-16.992-31.84-35.584 0.96-17.216 14.656-30.912 31.84-31.872h518.912c15.84-67.968 76.32-116.128 146.048-116.192zM751.872 786.848c45.536 0 82.336-36.896 82.336-82.368s-36.832-82.336-82.336-82.336c-45.472 0-82.336 36.864-82.336 82.336v0c0.032 45.504 36.896 82.304 82.336 82.368zM517.536 414.272h419.808c18.56-1.024 34.56 13.216 35.552 31.872 1.088 18.624-13.216 34.56-31.84 35.584-1.28 0.064-2.528 0.064-3.776 0h-419.776c-18.688 80.64-99.232 130.88-179.84 112.224-55.744-12.928-99.264-56.448-112.16-112.224h-138.848c-18.592 1.056-34.56-13.216-35.584-31.872-1.056-18.592 13.216-34.56 31.872-35.584 1.216-0.096 2.464-0.096 3.712 0h138.848c18.656-80.64 99.2-130.88 179.808-112.224 55.712 12.896 99.264 56.448 112.192 112.224zM371.488 530.368c45.504 0 82.336-36.864 82.336-82.336s-36.832-82.336-82.336-82.336c-45.44 0-82.336 36.864-82.336 82.336v0c0.064 45.472 36.896 82.304 82.336 82.336zM603.776 41.664c69.728 0.128 130.144 48.224 146.016 116.16h187.552c18.56 0.992 32.864 16.928 31.84 35.552-0.928 17.216-14.656 30.912-31.84 31.84h-187.552c-18.688 80.64-99.2 130.944-179.808 112.224-55.744-12.896-99.296-56.448-112.224-112.224h-371.072c-18.592-0.992-32.896-16.928-31.84-35.552 0.96-17.216 14.656-30.912 31.84-31.84h371.008c15.808-67.968 76.256-116.096 146.048-116.16zM603.776 273.92c45.472 0 82.336-36.832 82.336-82.336s-36.896-82.336-82.336-82.336c-45.536 0-82.4 36.832-82.4 82.336 0.096 45.472 36.896 82.304 82.4 82.336z" />
<glyph unicode="&#xe927;" glyph-name="flag" d="M850.080 374.752l-151.168 241.504 148.96 258.688h-599.456v33.856h-55.328v-921.6h55.328v387.456l601.664 0.096zM251.424 432.32v385.024h496.832l-116.544-202.368 114.304-182.624h-494.592z" />
<glyph unicode="&#xe928;" glyph-name="forword" d="M951.104 448.256l-403.648 442.624v-265.12h-46.912c-116.16 0-225.376-45.248-307.52-127.392s-127.392-191.36-127.392-307.52v-185.728l77.472 84.896c103.616 113.568 250.752 179.232 404.32 180.704v-265.12l403.648 442.624zM117.568 138.56v52.288c0 102.272 39.84 198.464 112.16 270.816s168.512 112.192 270.816 112.192h98.784v183.104l281.536-308.704-281.536-308.704v183.104h-46.56c-163.84-0.032-321.408-66.88-435.232-184.096z" />
<glyph unicode="&#xe929;" glyph-name="general" d="M757.12 558.432c69.536 0.096 129.92 48.096 145.664 115.872h39.456c18.624 0 33.664 15.072 33.664 33.696s-15.008 33.696-33.664 33.696h-39.648c-18.592 80.48-98.848 130.688-179.296 112.096-55.712-12.832-99.232-56.352-112.096-112.096h-517.792c-18.624 0-33.696-15.072-33.696-33.696s15.072-33.696 33.696-33.696h518.016c15.744-67.744 76.096-115.744 145.728-115.872zM757.12 790.144c45.376 0 82.144-36.8 82.144-82.176s-36.768-82.176-82.144-82.176c-45.408 0-82.208 36.768-82.208 82.176 0.16 45.344 36.832 82.048 82.208 82.176zM523.328 418.496h418.912c18.624 0 33.664 15.040 33.664 33.664s-15.008 33.696-33.664 33.696h-418.912c-18.56 80.448-98.848 130.656-179.296 112.096-55.744-12.864-99.232-56.352-112.096-112.096h-138.496c-18.624 0-33.696-15.072-33.696-33.696s15.072-33.664 33.696-33.664h138.496c18.56-80.512 98.848-130.656 179.296-112.096 55.712 12.832 99.232 56.352 112.096 112.096zM377.664 534.304c45.376 0 82.144-36.8 82.144-82.176s-36.768-82.176-82.144-82.176-82.176 36.832-82.176 82.176v0c0.128 45.312 36.832 81.984 82.112 82.176h0.064zM609.408 46.688c69.6 0.096 129.92 48.128 145.664 115.904h187.136c18.624 0 33.664 15.040 33.664 33.664 0 18.592-15.008 33.696-33.664 33.696h-187.136c-18.624 80.48-98.88 130.656-179.296 112.096-55.776-12.864-99.264-56.352-112.128-112.096h-370.208c-18.624 0-33.696-15.104-33.696-33.696s15.072-33.664 33.696-33.664h370.208c15.744-67.776 76.16-115.872 145.728-115.904zM609.408 278.4c45.376-0.096 82.048-37.056 81.92-82.4s-37.088-82.048-82.432-81.952c-45.248 0.16-81.888 36.96-81.888 82.24 0.128 45.44 36.992 82.112 82.4 82.112z" />
<glyph unicode="&#xe92a;" glyph-name="genres" d="M512 642.432c-107.2 0-194.432-87.232-194.432-194.432s87.232-194.4 194.432-194.4 194.4 87.168 194.4 194.4c0 107.2-87.168 194.432-194.4 194.432zM512 292.448c-85.76 0-155.552 69.76-155.552 155.552s69.792 155.552 155.552 155.552 155.552-69.792 155.552-155.552-69.76-155.552-155.552-155.552zM550.88 448c0-21.472-17.408-38.88-38.88-38.88s-38.88 17.408-38.88 38.88c0 21.472 17.408 38.88 38.88 38.88s38.88-17.408 38.88-38.88zM531.424 778.528c0 10.752-8.672 19.424-19.424 19.424-93.696 0-181.728-36.544-247.904-102.944-7.584-7.584-7.552-19.904 0.032-27.488 3.808-3.776 8.8-5.664 13.728-5.664 4.992 0 9.984 1.92 13.76 5.728 58.816 59.008 137.088 91.488 220.352 91.488 10.752 0 19.424 8.704 19.424 19.456zM978.624 448c0 257.28-209.312 466.624-466.624 466.624s-466.624-209.312-466.624-466.624c0-257.28 209.312-466.624 466.624-466.624 69.472 0 136.288 15.744 199.2 45.664 33.696-40.864 82.336-45.664 116.096-45.664 83.456 0 151.36 67.904 151.36 151.36v179.168c0 13.216-4.608 25.248-12.032 35.072 7.584 34.112 12 68.064 12 100.992zM939.712 132.736c0-61.984-50.432-112.448-112.448-112.448-41.728 0-68.352 9.792-87.712 33.248l-105.504 104.256c-7.808 9.536-7.104 23.264 1.632 31.968 4.512 4.512 10.496 7.008 16.864 7.008 6.336 0 12.384-2.464 16.192-6.336l42.72-47.136c5.44-5.952 13.984-8 21.44-5.088 7.488 2.88 12.416 10.112 12.416 18.112v155.552c0 10.688 8.704 19.424 19.424 19.424s19.488-8.736 19.488-19.424v-77.792c0-10.72 8.672-19.424 19.424-19.424s19.456 8.704 19.456 19.424v116.64c0 10.72 8.704 19.488 19.424 19.488 10.688 0 19.424-8.736 19.424-19.488v-116.64c0-10.72 8.736-19.424 19.424-19.424s19.456 8.704 19.456 19.424v77.792c0 10.688 8.704 19.424 19.424 19.424s19.456-8.736 19.456-19.424l0.032-179.2zM931.232 369.088c-3.52 0.704-7.2 1.152-10.944 1.152-7.584 0-14.816-1.44-21.472-4.128-6.752 24.768-29.44 42.976-56.288 42.976-26.88 0-49.536-18.24-56.288-42.976-6.688 2.656-13.952 4.128-21.536 4.128-32.16 0-58.336-26.176-58.336-58.336v-105.184l-9.536 10.496c-23.648 23.68-65.024 23.68-88.704 0.032-22.912-22.912-24.704-59.072-2.816-85.632l76.192-75.296c-53.856-23.488-110.624-36.096-169.504-36.096-235.84 0.032-427.712 191.872-427.712 427.744s191.872 427.712 427.712 427.712c235.872 0 427.712-191.872 427.712-427.712 0-25.696-3.36-52.224-8.512-78.912z" />
<glyph unicode="&#xe92b;" glyph-name="google-plus" d="M859.136 505.856v115.712h-57.856v-115.712h-115.712v-57.856h115.712v-115.712h57.856v115.712h115.712v57.856zM338.432 505.856v-115.712h163.68c-23.904-67.328-88.224-115.68-163.68-115.68-95.712 0-173.568 77.856-173.568 173.568s77.856 173.568 173.568 173.568c41.504 0 81.408-14.88 112.416-41.888l76.032 87.232c-52.064 45.344-118.944 70.336-188.448 70.336-159.52-0.032-289.28-129.792-289.28-289.312s129.76-289.28 289.28-289.28 289.28 129.792 289.28 289.28v57.856h-289.28z" />
<glyph unicode="&#xe92c;" glyph-name="image" d="M914.304 806.432h-804.576c-32.32 0-58.528-26.208-58.528-58.496v-599.84c0-32.352 26.208-58.496 58.528-58.496h804.576c32.288 0 58.496 26.144 58.496 58.496v599.776c0 32.288-26.144 58.56-58.496 58.56v0zM914.304 747.936v-425.504l-115.2 104.768c-17.312 15.776-43.968 15.136-60.512-1.408l-117.12-116.768-230.432 274.88c-15.552 18.56-43.2 21.024-61.824 5.44-1.824-1.504-3.552-3.2-5.12-5.024l-214.368-249.824v413.344l804.576 0.064zM665.632 594.304c0 44.544 36.128 80.608 80.608 80.608 44.576 0 80.64-36.032 80.64-80.608s-36.096-80.672-80.64-80.672c-44.48 0-80.544 36.064-80.608 80.608v0.064z" />
<glyph unicode="&#xe92d;" glyph-name="import" d="M801.824 660.16h-153.312v-91.008h153.312c45.664 0 80.864-23.136 80.864-43.36v-403.616c0-20.032-35.424-43.392-80.864-43.392h-579.744c-45.632 0-80.832 23.136-80.832 43.392v403.552c0 20.032 35.392 43.36 80.832 43.36h153.344v91.008h-153.344c-96.416 0-172-59.040-172-134.368v-403.552c0-75.36 75.584-134.4 172-134.4h579.84c96.416 0 171.968 59.040 171.968 134.4v403.552c0.032 75.392-75.552 134.432-172.064 134.432zM649.696 469.984c-12.064 0-23.616-4.8-32.128-13.344l-57.024-56.96v462.976c0 25.152-20.352 45.504-45.472 45.504s-45.504-20.352-45.504-45.504v-466.112l-60.064 60.064c-17.792 17.824-46.624 17.856-64.448 0.096s-17.888-46.624-0.096-64.448l136.064-135.584c8.544-8.512 20.096-13.312 32.16-13.312h0.704c12.032 0 23.616 4.8 32.128 13.312l135.84 135.84c17.824 17.824 17.824 46.624 0 64.384-8.512 8.512-20.064 13.312-32.128 13.312v-0.256z" />
<glyph unicode="&#xe92e;" glyph-name="instagram" d="M684.8 908.8h-345.6c-159.040 0-288-128.96-288-288v-345.6c0-159.008 128.96-288 288-288h345.6c159.040 0 288 128.992 288 288v345.568c-0.032 159.040-128.992 288-288 288zM886.4 275.2c0-111.168-90.432-201.6-201.6-201.6h-345.568c-111.168 0-201.6 90.432-201.6 201.6v345.6c0 111.168 90.432 201.6 201.6 201.6h345.6c111.168 0 201.6-90.432 201.6-201.6v-345.6zM512 678.4c-127.232 0-230.4-103.168-230.4-230.4s103.168-230.4 230.4-230.4 230.4 103.168 230.4 230.4-103.168 230.4-230.4 230.4zM512 304c-79.36 0-144 64.608-144 144s64.64 144 144 144 144-64.576 144-144c0-79.392-64.608-144-144-144zM790.4 695.68c0-16.96-13.76-30.688-30.688-30.688s-30.688 13.76-30.688 30.688c0 16.96 13.76 30.688 30.688 30.688s30.688-13.76 30.688-30.688z" />
<glyph unicode="&#xe92f;" glyph-name="integration" d="M809.792 467.84c-0.032 159.36-129.28 288.48-288.64 288.384s-288.448-129.344-288.352-288.672c0.032-97.408 49.28-188.32 130.944-241.536v-90.912c0.064-87.008 70.624-157.472 157.632-157.44 86.912 0.032 157.376 70.464 157.44 157.44v90.912c81.6 53.376 130.88 144.256 131.008 241.792zM623.136 135.072c0-56.288-45.664-101.92-101.92-101.92s-101.92 45.664-101.92 101.92v23.2h203.872v-23.2zM637.056 265.696c-8.64-4.96-13.952-14.208-13.952-24.16v-27.616h-74.080v143.904c37.12 12.032 62.272 46.688 62.336 85.696 0 15.36-12.448 27.808-27.84 27.808-15.328 0-27.776-12.448-27.776-27.808 0.032-19.072-15.392-34.496-34.432-34.56-19.072 0-34.56 15.456-34.56 34.464 0 0.032 0 0.096 0 0.096 0 15.36-12.416 27.808-27.808 27.808s-27.808-12.448-27.808-27.808c0.032-39.008 25.184-73.664 62.304-85.696v-143.872h-74.112v27.616c0 9.952-5.312 19.2-13.952 24.16-111.648 63.904-150.272 206.272-86.272 317.888s206.336 150.208 317.92 86.24c111.616-63.968 150.24-206.304 86.272-317.92-20.576-35.936-50.336-65.664-86.272-86.24h0.096zM521.216 918.368c-15.392 0-27.84-12.448-27.84-27.808v-48.832c0-15.392 12.448-27.84 27.84-27.84 15.328 0 27.776 12.448 27.776 27.84v48.832c0 15.36-12.448 27.808-27.776 27.808v0zM442.976 834.592l-17.28 45.696c-5.76 14.24-21.984 21.12-36.224 15.36-13.792-5.568-20.736-20.992-15.776-35.008l17.248-45.696c5.76-14.24 21.984-21.12 36.224-15.36 13.728 5.536 20.736 20.96 15.776 35.008h0.032zM652.576 896.576c-14.368 5.44-30.432-1.824-35.84-16.192l-17.312-45.696c-5.76-14.24 1.12-30.464 15.36-36.224s30.464 1.12 36.224 15.36c0.192 0.416 0.352 0.832 0.448 1.216l17.312 45.696c5.408 14.368-1.856 30.4-16.192 35.84z" />
<glyph unicode="&#xe930;" glyph-name="like" d="M49.664 532.064h168.128v-504.352h-168.128v504.352zM974.336 490.080c0 46.464-37.632 84.064-84.064 84.064h-265.44l40.16 192.064c0.832 4.224 1.44 8.608 1.44 13.248 0 17.44-7.168 33.184-18.464 44.544l-44.768 44.352-276.768-276.8c-15.136-15.328-24.608-36.352-24.608-59.488v-420.288c0-46.496 37.632-84.064 84.064-84.064h378.336c34.88 0 64.704 21.248 77.312 51.296l126.688 296.352c3.84 9.696 6.144 20 6.144 30.688v80.512l-0.416 0.416 0.416 3.168z" />
<glyph unicode="&#xe931;" glyph-name="like-border" d="M156.352 470.624v-381.504h-45.248v381.504h45.248zM217.792 532.064h-168.128v-504.384h168.128v504.384zM603.392 781.632l1.12-1.088c0.416-0.416 0.48-0.768 0.48-0.768s0 0 0 0c-0.032-0.448-0.128-0.896-0.16-1.056l-55.616-266.080h341.024c11.584 0 21.152-8.736 22.464-20l-3.296-28.192 3.456-3.456v-55.040c0-2.144-0.544-4.704-1.6-7.52l-126.4-295.68c-2.656-6.304-9.664-13.632-20.704-13.632h-378.272c-12.48 0-22.624 10.144-22.624 22.624v420.32c0 8.096 4.288 13.696 6.624 16l233.472 233.568zM603.2 868.32l-276.768-276.8c-15.136-15.328-24.608-36.352-24.608-59.456v-420.288c0-46.464 37.632-84.064 84.064-84.064h378.304c34.88 0 64.704 21.248 77.344 51.296l126.688 296.32c3.84 9.696 6.112 20 6.112 30.688v80.512l-0.416 0.416 0.416 3.168c0 46.464-37.632 84.064-84.064 84.064h-265.44l40.128 192.064c0.864 4.224 1.44 8.64 1.44 13.248 0 17.44-7.136 33.184-18.496 44.544l-44.736 44.32z" />
<glyph unicode="&#xe932;" glyph-name="list" d="M51.2 610.688h203.936v203.904h-203.936v-203.904zM105.216 760.576h95.936v-95.936h-95.936v95.936zM319.904 814.592v-203.936h652.896v203.936h-652.896zM918.784 664.672h-544.864v95.936h544.864v-95.936zM51.2 346.016h203.936v203.936h-203.936v-203.936zM105.216 495.968h95.936v-95.936h-95.936v95.936zM319.904 346.016h652.896v203.936h-652.896v-203.936zM373.92 495.968h544.864v-95.936h-544.864v95.936zM51.2 81.408h203.936v203.968h-203.936v-203.968zM105.216 231.392h95.936v-95.968h-95.936v95.968zM319.904 81.408h652.896v203.968h-652.896v-203.968zM373.92 231.392h544.864v-95.968h-544.864v95.968z" />
<glyph unicode="&#xe933;" glyph-name="loader1" d="M904.864 668.992c14.592 20.256 23.232 45.056 23.232 71.84 0 67.968-55.264 123.232-123.2 123.232-26.816 0-51.616-8.64-71.872-23.232-66.688 37.664-142.304 57.728-220.992 57.728-120.352 0-233.504-46.848-318.592-131.968s-131.968-198.24-131.968-318.592 46.848-233.504 131.968-318.592c85.088-85.12 198.24-131.968 318.592-131.968s233.504 46.848 318.592 131.968c85.12 85.088 131.968 198.24 131.968 318.592 0 78.688-20.064 154.304-57.696 220.992zM875.264 740.832c0-38.816-31.616-70.4-70.4-70.4s-70.432 31.584-70.432 70.4 31.616 70.432 70.432 70.432c38.816 0 70.4-31.616 70.4-70.432zM512 50.24c-219.328 0-397.76 178.432-397.76 397.76s178.432 397.76 397.76 397.76c66.688 0 129.6-16.512 184.864-45.664-9.696-17.6-15.232-37.792-15.232-59.264 0-24.416 7.2-47.2 19.488-66.368l-122.752-122.752c-19.2 12.32-41.952 19.488-66.368 19.488-67.936 0-123.2-55.264-123.2-123.2 0-67.904 55.264-123.2 123.2-123.2 67.904 0 123.2 55.264 123.2 123.2 0 24.448-7.2 47.2-19.488 66.368l122.752 122.752c19.2-12.32 41.952-19.488 66.4-19.488 21.44 0 41.632 5.536 59.264 15.232 29.12-55.264 45.664-118.176 45.664-184.864-0.032-219.328-178.432-397.728-397.792-397.728zM582.4 448c0-38.816-31.552-70.4-70.4-70.4s-70.4 31.552-70.4 70.4c0 38.816 31.584 70.4 70.4 70.4s70.4-31.584 70.4-70.4z" />
<glyph unicode="&#xe934;" glyph-name="lock" d="M877.664 586.048h-34.528v34.528c-0.16 171.488-139.136 310.464-310.656 310.688-171.488-0.192-310.464-139.168-310.656-310.656v-34.528h-34.528c-19.072 0-34.496-15.456-34.496-34.496v-552.32c0-19.072 15.456-34.496 34.496-34.496h690.368c19.072 0 34.528 15.456 34.528 34.496v552.32c0 19.040-15.456 34.496-34.528 34.496zM290.848 620.576c0 133.44 108.16 241.632 241.632 241.632s241.632-108.16 241.632-241.632v-34.528h-483.264v34.528zM843.136 33.76h-621.312v483.264h621.312v-483.264zM630.144 344.48c-14.592 41.408-53.728 69.088-97.664 69.024-57.056 0.096-103.392-46.048-103.52-103.104-0.064-43.904 27.584-83.072 68.992-97.664v-75.392c0-19.072 15.456-34.528 34.528-34.528s34.496 15.456 34.496 34.528v75.392c53.824 18.976 82.048 77.952 63.136 131.776zM532.48 275.392c-19.072 0-34.528 15.488-34.528 34.528 0 19.072 15.456 34.528 34.528 34.528s34.496-15.456 34.496-34.528c0-19.040-15.424-34.528-34.496-34.528z" />
<glyph unicode="&#xe935;" glyph-name="m-analytics" d="M910.144 908.64h-806.144c-31.776 0-57.536-25.792-57.536-57.536v-806.144c0-31.808 25.792-57.6 57.536-57.6h806.176c31.808 0 57.6 25.76 57.6 57.6v806.144c-0.032 31.84-25.824 57.536-57.632 57.536zM910.144 16.128v28.832h-806.144v247.2l164.544 164.48c30.112-14.816 66.144-10.336 91.744 11.424l148.608-89.184c-1.216-5.728-1.76-11.488-1.76-17.28-0.48-47.648 37.792-86.72 85.536-87.232 47.68-0.48 86.72 37.792 87.232 85.536 0.128 13.408-2.912 26.72-8.768 38.72l123.808 123.84v-103.296c-0.704-15.84 11.648-29.344 27.552-30.016 15.872-0.704 29.376 11.616 30.048 27.488 0 0.832 0 1.728 0 2.528v172.704c0 15.904-12.928 28.832-28.8 28.832v0h-172.672c-15.872-0.704-28.16-14.144-27.52-30.080 0.64-14.912 12.608-26.88 27.52-27.52h103.328l-123.936-123.808c-30.112 14.784-66.080 10.304-91.68-11.456l-148.544 89.248c1.12 5.696 1.696 11.488 1.696 17.248 0.48 47.68-37.792 86.72-85.472 87.232-47.712 0.48-86.752-37.856-87.232-85.536-0.16-13.408 2.816-26.688 8.704-38.72l-123.968-123.84v477.568h806.176v-834.976zM276.8 534.368c0 15.904 12.864 28.8 28.8 28.8 15.904 0 28.768-12.928 28.768-28.8s-12.864-28.8-28.8-28.8v0c-15.904 0.032-28.8 12.896-28.8 28.8zM564.704 361.6c0 15.904 12.928 28.832 28.8 28.832 15.904 0 28.832-12.928 28.832-28.832 0-15.872-12.928-28.8-28.832-28.8-15.872 0-28.8 12.928-28.864 28.8h0.096z" />
<glyph unicode="&#xe936;" glyph-name="marketing" d="M659.808 913.92h-502.688v-931.84h709.792v724.8c-9.792 9.792-200.8 200.704-207.104 207.040zM773.664 722.848l-97.888-0.032v97.92c25.568-25.568 53.44-53.472 97.888-97.888zM250.56 36.672l138.56 137.824 81.952-81.92 204.768 204.736v-71.36h54.592v163.808h-163.808v-54.592h69.824l-165.408-165.376-81.856 81.856-177.504-176.608v784.288h409.504v-191.104l191.104 0.032v-631.584h-561.728zM293.6 722.816h217.792v-54.592h-217.792v54.592zM293.6 586.784h217.792v-54.592h-217.792v54.592z" />
<glyph unicode="&#xe937;" glyph-name="m-collection" d="M143.68 10.656h736.576c50.944 0 92.128 41.248 92.128 92.128v147.296c0.064 22.656-8.352 44.576-23.488 61.408 15.136 16.8 23.488 38.72 23.488 61.312v147.36c0.064 22.656-8.352 44.512-23.456 61.344 15.136 16.832 23.488 38.784 23.456 61.408v147.296c0 50.88-41.184 92.128-92.128 92.128h-736.576c-50.848 0-92.096-41.248-92.096-92.128v-147.296c-0.032-22.656 8.352-44.512 23.488-61.408-15.168-16.832-23.52-38.72-23.488-61.344v-147.36c0-22.624 8.384-44.512 23.552-61.344-15.168-16.864-23.552-38.752-23.552-61.344v-147.296c0.032-50.912 41.248-92.128 92.096-92.128zM910.976 102.816c0-16.992-13.696-30.688-30.688-30.688h-736.576c-16.928 0-30.688 13.696-30.688 30.688v147.296c0.032 16.928 13.792 30.592 30.688 30.688h736.576c16.992-0.096 30.688-13.76 30.688-30.688v-147.296zM112.832 372.832v147.36c0.032 16.704 13.44 30.336 30.176 30.688h737.696c16.672-0.352 30.112-14.016 30.176-30.688v-147.36c-0.032-16.928-13.76-30.624-30.624-30.624h-736.512c-16.992-0.096-30.816 13.6-30.88 30.624 0 0 0 0 0 0zM112.832 790.208c0.032 16.992 13.728 30.688 30.688 30.688h736.672c16.896 0 30.592-13.728 30.656-30.688v-147.296c-0.096-16.768-13.472-30.336-30.208-30.688h-737.664c-16.704 0.352-30.112 13.952-30.176 30.688l0.032 147.296zM479.84 207.104h-256.768c-16.928 0-30.72-13.728-30.72-30.688s13.76-30.72 30.72-30.72h256.768c16.96 0 30.688 13.76 30.688 30.72s-13.728 30.688-30.688 30.688zM639.872 207.104c-16.928 0-30.784-13.728-30.784-30.688s13.76-30.752 30.752-30.752c16.96-0.032 30.752 13.728 30.752 30.688 0 8.224-3.232 16.032-8.992 21.76s-13.6 8.992-21.696 8.992zM800.608 207.104c-16.96 0-30.752-13.728-30.752-30.688s13.76-30.752 30.72-30.752c16.96-0.032 30.752 13.728 30.752 30.688 0 8.224-3.264 16.032-9.024 21.76s-13.632 8.992-21.696 8.992zM223.040 685.856h256.768c16.96 0 30.688 13.728 30.688 30.688s-13.728 30.688-30.688 30.688h-256.768c-16.928 0-30.688-13.696-30.688-30.688s13.728-30.688 30.688-30.688zM639.872 685.856c16.992 0 30.688 13.792 30.688 30.752s-13.728 30.688-30.688 30.72c-16.928 0-30.72-13.792-30.72-30.72-0.064-8.16 3.168-16.032 9.024-21.76 5.76-5.728 13.504-8.992 21.696-8.992zM800.608 685.856c16.992 0 30.72 13.792 30.72 30.752s-13.728 30.688-30.72 30.72c-16.96 0-30.72-13.792-30.72-30.72-0.032-8.16 3.168-16.032 9.024-21.76 5.76-5.76 13.504-8.992 21.696-8.992zM479.84 477.248h-256.768c-16.928 0-30.72-13.792-30.72-30.688 0-16.992 13.76-30.752 30.72-30.752h256.768c16.96 0 30.688 13.76 30.688 30.752 0 16.928-13.728 30.688-30.688 30.688zM639.872 477.248c-16.928 0-30.784-13.792-30.784-30.752s13.76-30.752 30.752-30.752c16.96 0 30.752 13.824 30.752 30.752 0 8.16-3.232 16-8.992 21.76-5.76 5.696-13.6 8.928-21.696 8.96zM800.608 477.248c-16.96 0-30.752-13.792-30.752-30.752s13.76-30.752 30.72-30.752 30.752 13.824 30.752 30.752c0 8.16-3.264 16-9.024 21.76-5.792 5.696-13.632 8.928-21.696 8.96z" />
<glyph unicode="&#xe938;" glyph-name="m-dashboard" d="M406.368 601.6h-288c-37.088 0.032-67.168 30.080-67.2 67.168v172.8c0.032 37.12 30.112 67.2 67.2 67.2h288c37.056-0.064 67.104-30.112 67.168-67.2v-172.8c-0.032-37.056-30.080-67.104-67.168-67.168zM118.368 851.2c-5.312 0-9.6-4.288-9.6-9.6v0-172.8c0-5.312 4.288-9.632 9.6-9.632h288c5.344 0 9.632 4.288 9.632 9.632v172.8c0 5.312-4.256 9.6-9.632 9.6h-288zM406.368-12.8h-288c-37.056 0-67.136 30.048-67.2 67.104v403.2c0.032 37.12 30.112 67.2 67.2 67.2h288c37.056-0.032 67.104-30.112 67.168-67.2v-403.2c-0.032-37.056-30.080-67.040-67.168-67.104zM118.368 467.2c-5.312 0-9.6-4.32-9.6-9.632 0 0 0 0 0-0.032v-403.2c0-5.376 4.288-9.632 9.6-9.632v0h288c5.344 0 9.632 4.288 9.632 9.632v0 403.2c0 5.344-4.256 9.6-9.632 9.6v0l-288 0.064zM905.632-12.8h-287.968c-37.12 0-67.232 30.080-67.232 67.2v172.8c0 37.12 30.176 67.232 67.232 67.232h287.968c37.12 0 67.2-30.112 67.2-67.232v-172.8c0-37.12-30.080-67.2-67.2-67.2zM617.664 236.8c-5.376 0-9.664-4.32-9.664-9.632v-172.8c0-5.28 4.288-9.632 9.664-9.632h287.968c5.376 0 9.632 4.352 9.632 9.632v172.8c0 5.312-4.256 9.632-9.632 9.632h-287.968zM905.632 371.2h-287.968c-37.12 0.096-67.232 30.112-67.232 67.232v403.2c0.032 37.12 30.176 67.136 67.232 67.168h287.968c37.12-0.032 67.2-30.080 67.2-67.2v-403.2c-0.032-37.056-30.176-67.104-67.2-67.168zM617.664 851.2c-5.376 0-9.664-4.288-9.664-9.6v-403.2c0-5.376 4.288-9.632 9.664-9.632h287.968c5.376 0 9.632 4.288 9.632 9.632v403.2c0 5.312-4.256 9.6-9.632 9.6h-287.968z" />
<glyph unicode="&#xe939;" glyph-name="minus" d="M973.472 448v0c0-29.984-24.32-54.304-54.304-54.304h-814.336c-29.952 0-54.304 24.32-54.304 54.304v0c0 30.016 24.32 54.304 54.304 54.304h814.336c29.952 0 54.304-24.32 54.304-54.304z" />
<glyph unicode="&#xe93a;" glyph-name="m-partners" d="M965.6 562.304l-4 6.752-17.088 29.216-2.24 4.032c-8.096 13.472-26.528 17.984-39.52 9.888-13.504-8.096-18.048-25.184-10.4-38.688l21.088-36.832-53.888-31.936-120.512 208.608 53.984 31.904 20.224-34.624c7.232-13.504 25.6-18.912 39.104-11.68 6.72 4.032 11.648 9.888 13.92 17.536 2.24 7.2 1.344 14.848-3.2 22.496l-21.92 38.656c-14.4 24.288-48.16 33.696-72.864 19.328l-61.632-35.968c-9.44-4.928-16.64-13.024-21.088-22.016h-168.128c-27.84 0-53.504-10.784-73.248-30.112l-13.504-13.952c-14.368 3.136-29.664 4.928-44.48 4.928h-46.752c-4.48 10.336-12.128 18.88-21.6 24.32l-62.048 35.936c-24.704 14.4-58.432 4.96-72.832-19.328l-120.448-208.608-4.032-7.2c-11.232-19.328-9.024-42.272 4.032-58.88 3.584-5.44 8.992-10.368 15.264-13.984l62.080-36c8.96-5.376 19.328-7.648 30.112-6.624l42.656-43.2c0-2.72-0.416-5.376-0.416-8.096 0-36 25.632-66.144 59.36-72.896 1.728-35.936 29.184-65.568 65.152-70.496 4-33.28 30.56-59.808 64.736-64.384 1.792-16.608 9.024-31.872 21.12-43.552 13.952-13.952 32.384-22.048 52.576-22.048 19.328 0 38.72 8.096 52.64 22.048l25.184 25.12c4.864 4.992 8.992 10.784 12.544 16.704 30.56-14.88 71.488-4.928 92.16 23.36 2.24 2.72 4.032 6.336 5.824 9.472 32.352-13.504 72.384-1.408 91.264 28.288 3.104 4.032 5.376 9.024 7.168 13.984 36-5.888 71.52 15.744 83.168 49.856 8.992 26.944 1.792 56.224-18.336 76.48l-32.864 32.768 62.944 63.456c11.232 0 19.328 2.24 27.392 7.2l62.048 35.936c5.824 3.584 11.232 8.096 15.264 13.024 4.48 5.888 7.68 12.16 9.44 19.328 3.584 13.504 1.792 27.904-5.44 40.48zM677.952 615.84c0.896 15.744-11.68 29.216-27.456 30.144h-1.344c-15.264 0-28.352-12.16-28.768-26.080v-3.584c0-15.744-7.232-30.592-18.88-40.928l-60.224 60.256c-11.232 10.784-30.080 10.784-40.896 0l-59.776-59.776c-6.336-6.272-17.568-6.272-23.84 0-3.136 3.168-4.992 7.648-4.992 12.16s1.856 8.544 4.992 11.68l68.352 68.768c8.512 8.544 20.16 13.024 32.352 13.024h173.568l117.344-202.72-55.264-54.848-111.072 110.56c22.88 21.088 35.936 50.784 35.936 81.376zM164.96 468.352l-54.368 31.488 120 208.128 54.4-31.488-120.064-208.16zM313.792 361.376l-15.264-15.264c-6.336-6.336-17.088-6.336-23.36 0.416-3.616 3.168-4.96 7.264-5.44 11.68 0 4.48 1.856 8.512 5.024 11.648l15.264 15.296c3.104 3.168 7.648 4.896 12.096 4.896s8.512-1.728 11.68-4.896c6.752-6.272 6.752-17.088 0.032-23.744zM383.008 301.6l-25.152-25.184c-3.168-3.136-7.2-4.896-11.68-4.896s-9.024 1.76-12.16 4.896c-3.104 3.168-4.96 7.648-4.96 12.16s1.856 8.608 4.96 11.648l25.184 25.184c3.168 3.168 7.2 4.928 11.68 4.928s9.056-1.76 12.16-4.928c6.272-6.784 6.272-17.568 0-23.808zM447.296 236.832l-24.736-24.672c-3.168-3.168-7.648-4.928-11.68-4.928h-1.28c-9.056 0.416-15.776 7.648-15.776 16.608 0 4.48 1.792 8.96 4.992 12.128l24.672 24.768c3.168 3.616 7.68 4.896 12.16 4.896 4.544 0 8.576-1.28 11.712-4.896 3.136-3.168 4.928-7.2 4.928-11.68 0-4.608-1.792-8.608-4.96-12.224zM512.896 173.504l-26.080-26.048c-6.272-6.336-17.504-6.336-23.776 0-6.336 6.624-6.336 17.024 0 23.808l25.184 25.184c3.104 3.040 7.136 4.48 11.648 4.48s8.96-1.376 12.16-4.48c6.336-6.304 6.336-16.672 0.864-22.912zM786.272 285.376l-1.792-1.312c-6.304-5.376-16.16-4.48-21.984 1.312l-168.16 167.712c-11.616 10.336-30.528 9.44-40.928-2.24-9.44-10.784-9.44-27.424 0.416-38.656l150.624-150.624c3.104-3.168 4.928-7.232 4.928-11.68 0-4.48-1.792-8.512-4.928-11.68-6.336-6.336-17.536-6.752-23.84 0l-180.704 180.672c-10.784 10.784-29.664 10.784-40.896 0-5.408-5.376-8.096-12.512-8.096-20.608 0-7.712 2.656-14.88 8.096-20.32l150.56-150.112c6.272-6.752 6.272-17.504 0-23.776-6.752-6.784-17.504-6.784-23.84 0l-33.184 32.8c-11.712 11.712-27.040 19.36-43.2 21.6-4.512 32.864-30.56 59.296-64.736 63.808-4 35.552-33.28 62.944-69.664 65.28-6.752 34.56-36.864 60.224-73.28 60.224h-3.168c-18.88-0.928-36.448-8.576-49.44-22.048l-7.2-7.2-25.184 25.184 114.656 198.752h46.72l-2.208-2.688c-13.504-14.816-19.84-33.696-18.4-53.504 0.896-19.776 9.824-38.208 24.672-51.264 27.52-23.808 71.040-24.256 98.944 0.48l39.52 39.552 265.696-265.664c6.368-6.368 6.368-17.152 0.032-23.936zM906.72 656.288c0-16.192-13.056-28.768-28.704-28.768-7.648 0-15.328 3.136-20.192 8.096-5.408 5.408-8.576 13.024-8.576 20.704 0 15.712 13.056 28.768 28.768 28.768s28.704-13.056 28.704-28.768z" />
<glyph unicode="&#xe93b;" glyph-name="m-people" d="M443.168 705.632h-0.416c5.536-5.632 10.656-11.584 14.784-17.664-4.128 6.048-8.832 12.032-14.368 17.664zM443.168 705.632h-0.416c5.536-5.632 10.656-11.584 14.784-17.664-4.128 6.048-8.832 12.032-14.368 17.664zM443.168 705.632h-0.416c5.536-5.632 10.656-11.584 14.784-17.664-4.128 6.048-8.832 12.032-14.368 17.664zM671.456 99.072l-0.928-12.096h-69.216l-0.416 12.096c-1.888 71.424-35.264 138.72-90.944 183.2-42.208 35.328-95.616 53.888-150.336 53.408h-1.792c-126.688-0.928-213.92-87.232-238.976-237.568l-1.856-10.656h-64.928l-0.96 11.584c-5.12 74.208 21.344 147.552 72.832 201.376 58.912 66.304 142.432 105.76 231.040 107.648h5.088c87.296-0.416 170.816-36.608 231.104-100.256 54.304-55.616 83.488-131.2 80.32-208.704zM661.728 607.136v-0.448c7.872 8.384 17.152 14.4 27.36 19.008-10.208-4.16-19.488-10.656-27.36-18.56zM661.728 607.136v-0.448c7.872 8.384 17.152 14.4 27.36 19.008-10.208-4.16-19.488-10.656-27.36-18.56zM661.728 607.136v-0.448c7.872 8.384 17.152 14.4 27.36 19.008-10.208-4.16-19.488-10.656-27.36-18.56zM719.744 710.112c-89.6-1.344-161.088-74.656-159.648-164.256v-2.304c0.96-88.192 73.824-158.688 161.952-157.312h2.272c89.504 1.408 160.992 74.72 159.648 164.32-1.408 89.536-75.168 160.96-164.224 159.584zM722.048 462.816c-11.648 0-22.752 2.368-32.896 6.976h-0.48c-5.12 2.304-9.76 4.608-13.984 7.872h-0.416c-4.192 3.264-8.32 6.496-12.064 10.208-15.776 15.328-25.12 36.224-25.504 59.872 0 22.272 8.8 43.136 25.056 58.912v0.448c7.872 7.904 17.152 14.4 27.36 18.56s21.312 6.528 32.928 6.528c17.184 0 33.376-5.12 47.296-14.4 4.704-3.264 8.864-6.496 12.544-10.688 15.296-15.264 25.056-32.096 24.608-59.36 0.032 0 5.504-84.928-84.448-84.928zM973.504 129.664c0-10.24-0.448-20.896-1.888-31.072l-1.344-11.168-10.656-0.48h-0.928l-8.832-0.416c-6.976-0.416-12.992-0.416-19.040-0.992h-0.48c-4.16 0-7.872 0.544-11.552 0.992l-4.224 0.416-10.656 0.928-0.96 10.24c-0.928 8.832-1.312 17.152-2.272 25.504-0.448 15.776-2.368 32.064-5.568 47.36-18.112 79.328-88.16 135.936-169.344 137.792-15.328 0-30.208-2.272-45.024-6.464-7.936-2.368-15.776-3.264-24.128-3.744-23.232 1.376-43.616 15.776-52 37.12l-6.464 11.136 11.168 6.464c34.784 19.52 73.792 29.216 113.184 29.216 108.992-0.416 201.344-70.048 236.16-167.040 9.76-26.912 14.88-55.648 14.88-85.824zM245.024 636.032c-0.448-3.712-0.96-7.872-0.96-11.584 0-4.672 0.512-9.344 0.96-13.504-0.448 4.672-0.448 8.832-0.448 13.504 0 3.68 0 7.872 0.448 11.584zM360.576 810.464c-49.664 0-97.472-19.488-132.256-54.752-34.336-34.784-53.856-81.696-54.304-130.432-0.896-103.968 82.624-188.864 186.048-189.76h0.96c103.456 0.416 187.456 84.448 187.008 187.904 0 103.488-84 187.008-187.456 187.008zM443.168 540.864c-5.6-5.536-11.136-10.208-17.216-14.368-18.56-12.544-40.8-20-64.928-20h-0.448c-30.624 0-60.32 12.096-82.176 34.336-2.752 2.816-5.088 5.568-7.872 8.32-4.16 5.632-8.32 11.168-11.584 17.248-7.424 13.856-12.032 28.704-13.92 44.48-0.448 4.192-0.96 8.832-0.96 13.504 0 3.712 0.512 7.872 0.96 11.584 1.408 11.584 4.672 22.752 8.832 32.896 1.792 3.712 3.264 6.976 5.088 10.24 3.712 6.464 7.872 12.512 12.544 18.080 9.696 11.584 21.312 21.344 34.272 28.32 6.528 3.712 13.504 6.464 20.928 8.8 10.144 3.712 21.76 5.632 33.344 6.080h0.512c31.104 0 60.32-12.544 82.176-34.784h0.416c5.536-5.632 10.208-11.616 14.368-17.696 12.544-19.040 19.488-41.28 19.488-64.48 0-32.032-12.544-61.184-33.856-82.592z" />
<glyph unicode="&#xe93c;" glyph-name="m-subscription" d="M920.384 843.008c-1.888 22.624-14.112 41.888-31.552 53.664-11.232 7.552-24.448 11.776-38.592 11.776-1.408 0-3.328 0-4.288-0.448h-667.456c-15.552 0.928-30.592-3.328-42.88-11.328-17.856-11.776-30.592-31.552-32.48-54.624v-798.464c0.448-18.848 12.224-35.36 28.704-42.4 17.024-7.52 37.248-7.072 53.728 2.368l69.728 40.032c3.776 2.368 8.448 1.856 11.776 0l78.656-45.696c24.928-13.632 56.48-13.632 81.472 0l78.656 45.696c3.776 2.368 8.512 1.856 11.808 0l79.168-45.696c12.256-6.528 26.336-10.336 40.48-10.336 14.112 0 28.288 3.808 40.544 10.336l79.072 45.696c3.328 2.368 8 1.856 11.328 0l69.696-40.032c8.96-5.216 18.848-7.552 29.216-7.552 8.512 0 16.992 1.44 24.096 5.216 17.408 7.040 28.704 23.552 29.664 42.88l-0.512 798.912zM855.424 63.84l-52.288 30.176c-24.48 14.080-56.544 14.080-81.056 0l-79.104-45.664c-3.328-1.888-8-1.888-11.328 0l-79.104 45.664c-12.704 7.072-26.368 10.848-40.544 10.848-14.592 0-28.256-3.776-40.96-10.848l-78.656-45.248c-3.776-2.304-8-2.304-11.744-0.416l-79.168 45.664c-24.544 14.080-56.096 14.080-81.024 0l-52.32-30.176v777.248c0.48 4.224 3.776 7.52 9.408 7.52h669.824c4.224 0 7.552-3.296 8.032-6.56v-778.208h0.032zM563.808 521.28c-8 2.816-15.040 5.184-21.632 8v123.424c9.856-3.328 18.816-8.032 26.816-14.144 13.216-11.296 34.88-9.856 46.208 3.328s10.336 32.96-2.912 45.664c-20.16 16.48-44.192 27.776-70.112 32v23.072c0.448 8.48-2.88 16.992-8.512 23.552-6.144 6.144-14.112 9.888-24.48 10.368-17.44 0-31.552-13.664-32.512-33.44v-25.92c-3.328-0.448-6.56-1.408-9.824-2.336-42.4-13.664-73.504-49.472-81.024-92.8-8.96-38.592 4.224-78.208 34.848-104.544 17.376-12.736 36.256-23.584 56.032-32.448v-160.64c-19.328 2.304-38.144 9.856-54.176 22.112-14.528 9.408-35.808 5.152-45.632-9.44-9.92-15.072-5.696-35.36 8.96-45.184 26.848-19.328 57.952-30.624 90.88-32.992v-26.336c0.448-17.472 15.072-31.104 32.512-31.104h1.408c16.928 0.928 30.592 14.080 31.104 31.552v29.216c56.064 12.672 98.912 58.464 108.352 115.456 12.224 63.072-25.472 124.8-86.24 143.648zM476.64 558.464c-5.6 3.296-10.816 6.56-15.552 10.368-10.816 10.336-15.552 25.44-11.328 40.96 2.848 16 12.288 29.664 26.88 38.144v-89.504zM542.176 330.944v128.544l0.48-0.448c30.624-8.928 48.96-39.104 42.88-70.688-4.256-25.408-20.768-46.624-43.36-57.44z" />
<glyph unicode="&#xe93d;" glyph-name="music" d="M85.632 655.744c-19.648 0-35.584-15.936-35.584-35.616v-344.096c0-19.648 15.936-35.52 35.584-35.52s35.584 15.872 35.584 35.52v344.096c0 19.648-15.936 35.616-35.584 35.616v0zM256.256 758.976c-19.648 0-35.616-15.904-35.616-35.584v0-550.528c0-19.68 15.936-35.584 35.616-35.584 19.616 0 35.584 15.904 35.584 35.584v550.432c0.096 19.648-15.808 35.648-35.456 35.68-0.032 0-0.096 0-0.096 0zM426.816 902.368c-19.648 0-35.584-15.936-35.584-35.584v-837.536c0-19.648 15.936-35.584 35.584-35.584s35.584 15.968 35.584 35.584v837.536c0 19.648-15.936 35.584-35.584 35.584v0zM597.312 694.4c-19.648 0-35.552-15.936-35.552-35.584v-421.472c-0.032-19.68 15.776-35.648 35.424-35.68 19.648-0.096 35.648 15.776 35.712 35.456 0 0.032 0 0.16 0 0.192v421.376c0 19.648-15.872 35.648-35.456 35.712-0.032 0-0.032 0-0.128 0zM767.904 655.744c-19.68 0-35.648-15.936-35.648-35.616v-344.096c0-19.648 15.872-35.648 35.456-35.648 19.68-0.096 35.648 15.776 35.712 35.424 0 0.128 0 0.16 0 0.192v344.096c0 19.648-15.968 35.616-35.552 35.616v0zM938.432 541.408c-19.68 0-35.584-15.936-35.584-35.584v-115.456c0.032-19.68 16.032-35.552 35.68-35.424 19.552 0 35.424 15.872 35.424 35.424v115.36c0.096 19.648-15.776 35.648-35.424 35.712-0.032 0-0.096 0-0.096 0z" />
<glyph unicode="&#xe93e;" glyph-name="music-new" d="M958.72 681.984c-6.688 5.056-15.392 6.688-23.456 4.416l-378.784-107.2c-11.52-3.264-19.488-13.792-19.488-25.792v-362.816c-15.776 9.12-34.112 14.432-53.632 14.432-59.104 0-107.2-48.096-107.2-107.2s48.096-107.2 107.2-107.2 107.2 48.096 107.2 107.2c0 2.784 0 328.128 0 328.128l325.152 92.032v-220.16c-15.776 9.12-34.080 14.432-53.6 14.432-59.104 0-107.2-48.096-107.2-107.2s48.096-107.2 107.2-107.2 107.2 48.096 107.2 107.2c0 2.368 0 455.584 0 455.584 0.032 8.384-3.904 16.288-10.624 21.344zM483.424 44.224c-29.568 0-53.6 24.032-53.6 53.6s24.032 53.6 53.6 53.6 53.632-24.064 53.632-53.6c0-29.568-24.064-53.6-53.632-53.6zM862.176 151.424c-29.536 0-53.6 24.032-53.6 53.6s24.064 53.6 53.6 53.6c29.568 0 53.6-24.064 53.6-53.6s-24.032-53.6-53.6-53.6zM915.776 573.664l-325.152-92.032v51.488l325.152 92.032v-51.52zM428.576 715.136c-59.456 43.584-103.008 86.752-133.152 131.968l-30.88 46.336c-6.56 9.824-18.752 14.208-30.080 10.784s-19.040-13.856-19.040-25.632v-419.968c-15.776 9.152-34.080 14.432-53.6 14.432-59.104 0-107.2-48.096-107.2-107.2s48.096-107.2 107.2-107.2 107.2 48.096 107.2 107.2v426.304c32.032-41.28 74.112-80.8 127.872-120.224 20.608-15.104 32.928-39.36 32.928-64.896 0-44.352-36.064-80.416-80.384-80.416-14.816 0-26.816-12-26.816-26.816s11.968-26.816 26.816-26.816c73.856 0 133.984 60.096 133.984 134.016 0 42.528-20.512 82.944-54.848 108.128zM161.824 312.224c-29.568 0-53.6 24.032-53.6 53.6s24.032 53.6 53.6 53.6 53.6-24.064 53.6-53.6c0.032-29.568-24.032-53.6-53.6-53.6z" />
<glyph unicode="&#xe93f;" glyph-name="m-video" d="M957.984 681.856c-9.824 6.112-22.080 6.656-32.32 1.44l-216.16-108.064v78.464c0 54.656-44.256 98.944-98.912 98.944h-461.664c-54.464-0.16-98.592-44.352-98.624-98.848v-395.648c0-54.656 44.288-99.008 98.912-99.008v0h461.696c54.656 0 98.944 44.352 98.944 99.008v78.432l216.096-108.192c16.32-8.096 36.096-1.504 44.192 14.816 2.304 4.576 3.52 9.728 3.488 14.944v395.648c0 11.456-5.92 22.080-15.648 28.064zM644.064 258.144c0-18.24-14.816-32.992-32.992-32.992h-461.696c-18.208 0-32.896 14.816-32.896 32.992v395.648c0 18.24 14.72 32.96 32.896 32.96h461.664c18.24 0 32.992-14.752 32.992-32.96v-395.648zM907.84 311.392l-197.824 99.008v91.104l197.824 98.944v-289.056zM380.096 587.84c-72.864 0-131.872-59.040-131.872-131.904s59.008-131.904 131.872-131.904 131.904 59.072 131.904 131.904v0c0 72.864-59.040 131.904-131.904 131.904zM380.096 389.952c-36.416 0-65.952 29.568-65.952 66.016s29.536 65.984 65.952 65.984 66.016-29.504 66.016-65.984c-0.032-36.448-29.6-66.016-66.016-66.016v0z" />
<glyph unicode="&#xe940;" glyph-name="notification" d="M983.744 190.592c-92.032 79.616-177.216 191.904-177.216 472.32 0 162.4-132.128 294.496-294.496 294.496s-294.56-132.096-294.56-294.496c0-280.64-85.152-392.864-177.28-472.384-25.536-22.24-40.192-54.272-40.192-87.904 0-18.496 15.008-33.504 33.504-33.504h317.952c15.52-74.432 81.6-130.528 160.576-130.528s145.056 56.096 160.576 130.528h317.952c18.496 0 33.504 15.008 33.504 33.504 0 33.888-14.688 65.984-40.256 87.968zM512 5.6c-41.728 0-77.376 26.496-91.040 63.52h182.080c-13.664-37.056-49.312-63.52-91.040-63.52zM80.192 136.128c1.216 1.312 2.528 2.592 3.904 3.776 140.448 121.248 200.384 277.664 200.384 523.008 0 125.44 102.080 227.488 227.552 227.488s227.488-102.048 227.488-227.488c0-245.12 59.936-401.536 200.448-523.040 1.376-1.184 2.656-2.432 3.904-3.744h-863.68z" />
<glyph unicode="&#xe941;" glyph-name="notification-fill" d="M936.352 216.48c-82.784 71.584-159.424 172.64-159.424 424.832 0 146.048-118.848 264.896-264.896 264.896-146.112 0-264.96-118.816-264.96-264.896 0-252.448-76.608-353.376-159.456-424.928-22.976-20-36.16-48.832-36.16-79.040 0-16.64 13.504-30.144 30.112-30.144h285.984c13.952-66.976 73.408-117.376 144.416-117.376s130.464 50.432 144.416 117.376h285.984c16.64 0 30.144 13.504 30.144 30.144-0.032 30.464-13.216 59.36-36.224 79.136z" />
<glyph unicode="&#xe942;" glyph-name="pending-videos" d="M773.76 775.68c22.144-8.16 43.488-18.368 63.712-30.528 30.976-23.296 48.768-60.128 47.84-98.848 1.056-41.44 0.64-82.944 0-124.416-0.32-24.864-21.792-39.424-39.2-26.080-7.392 6.848-11.808 16.352-12.256 26.432-1.312 39.68-0.48 79.424-0.512 119.136 3.040 42.24-28.704 78.976-71.040 82.016-3.616 0.256-7.264 0.256-10.912 0-191.584 0.128-383.136-0.736-574.72 0.704-45.376 1.056-82.976-34.848-84.064-80.192-0.032-1.408-0.032-2.816 0-4.192 1.952-109.184 0.576-218.464 0.704-327.68-2.208-41.888 29.952-77.632 71.84-79.84 2.816-0.128 5.664-0.128 8.48 0.032 120.896 0 241.792-0.032 362.688-0.16 7.424 0.992 14.976-0.352 21.728-3.68 7.52-5.6 12.672-13.888 14.368-23.2-1.664-8.832-6.88-16.576-14.4-21.472-6.752-3.328-14.304-4.64-21.76-3.776-118.016-0.256-236-0.288-353.984-0.192-67.744-5.216-128.224 42.24-139.36 109.28-0.256 1.056-1.312 1.856-1.984 2.784v371.584c5.088 34.112 23.68 64.704 51.584 84.928 19.488 10.656 39.744 19.808 60.64 27.296l620.64 0.032zM752.768 102.528c-23.36 6.24-46.112 14.304-68.16 24.192-77.792 41.088-115.616 131.488-90.272 215.68 28.96 99.616 133.152 156.928 232.768 127.968 69.44-20.16 121.12-78.4 132.928-149.76 0.704-2.688 1.76-5.248 3.072-7.744v-42.048c-1.28-3.2-2.272-6.496-3.040-9.856-7.2-48.352-33.376-91.808-72.736-120.832-27.52-19.552-59.2-32.384-92.544-37.568l-42.016-0.032zM775.808 426.24c-74.912 1.216-136.672-58.56-137.92-133.536-1.216-74.464 57.76-136 132.192-137.856 74.88-2.976 138.080 55.36 141.056 130.24s-55.392 138.048-130.304 141.024c-1.696 0.064-3.328 0.128-5.024 0.128zM366.336 481.824c0 33.28-0.416 66.592 0.128 99.808-1.984 13.632 7.424 26.24 21.024 28.224 7.040 1.024 14.208-0.992 19.648-5.632 53.088-32.768 105.856-66.016 158.336-99.808 13.12-5.696 19.168-20.928 13.44-34.048-2.688-6.208-7.68-11.104-13.92-13.696-51.52-33.12-103.264-65.92-155.232-98.368-24.896-15.456-43.392-4.224-43.456 25.28 0.032 32.832 0.128 65.536 0.032 98.24zM417.568 536.832v-112.736l89.28 56.736-89.28 56zM742.304 316.512c0 13.376-0.288 26.816 0 40.224 0.384 19.072 10.368 30.24 26.496 29.952 15.392-0.256 24.96-10.944 25.28-29.184 0.416-19.232 0.672-38.528 0-57.728-1.6-10.496 3.488-20.864 12.768-26.048 9.824-6.208 19.264-13.12 28.16-20.672 11.072-8.48 13.696-24.16 5.952-35.808-8.096-11.392-23.872-14.048-35.232-5.952-0.16 0.128-0.32 0.256-0.416 0.384-17.92 11.936-35.136 24.928-51.52 38.88-6.208 6.56-10.048 15.040-10.944 24.064-1.024 13.952-1.184 27.968-0.48 41.952z" />
<glyph unicode="&#xe943;" glyph-name="plan" d="M561.28 512.32c-11.168 3.968-21.088 7.648-30.464 11.232v150.112c17.472-2.4 33.952-9.344 47.808-20.16 9.024-7.712 22.624-6.72 30.304 2.304 7.36 8.608 6.848 21.44-1.28 29.408-21.856 18.048-48.608 29.184-76.864 31.936v34.656c0.576 11.84-8.576 21.92-20.448 22.496-11.84 0.544-21.92-8.608-22.496-20.48-0.032-0.704-0.032-1.376 0-2.016v-36.256c-6.208-1.088-12.352-2.528-18.4-4.288-39.392-12.48-68.48-45.888-75.424-86.624-8.16-34.976 3.872-71.552 31.136-94.848 19.296-14.368 40.352-26.24 62.624-35.264v-185.952c-26.944 0.128-53.12 9.024-74.592 25.28-9.92 6.528-23.264 3.776-29.792-6.144s-3.712-23.232 6.144-29.76c28.48-20.896 62.848-32.16 98.144-32.256v-38.304c0.576-11.904 10.656-21.024 22.496-20.48 11.072 0.512 19.904 9.408 20.448 20.48v39.904c57.216 8.96 102.144 53.76 111.424 110.944 11.232 58.784-23.584 116.576-80.8 134.080zM451.776 563.68c-14.656 13.504-20.608 34.048-15.456 53.28 4.128 24.832 21.664 45.344 45.536 53.28 2.144 0.64 3.968 0.768 6.016 1.248v-129.568c-12.704 5.984-24.832 13.28-36.096 21.728zM599.744 385.44c-5.952-36.32-33.024-65.504-68.768-74.208v166.208l16.192-5.888c37.12-10.88 59.872-48.192 52.48-86.144h0.096zM855.616 909.504h-687.296c-33.152 2.208-61.92-22.656-64.448-55.776v-820.8c0.48-14.464 9.312-27.232 22.656-32.832 14.144-6.528 30.56-5.856 44.128 1.792l71.584 41.408c7.424 4.224 16.512 4.224 23.872 0l81.216-46.912c22.176-12.544 49.344-12.544 71.52 0l81.216 46.912c7.424 4.224 16.48 4.224 23.904 0l81.216-46.912c22.176-12.544 49.344-12.544 71.52 0l81.216 46.912c7.36 4.224 16.48 4.224 23.872 0l71.648-41.408c13.568-7.648 29.984-8.32 44.128-1.792 13.344 5.568 22.176 18.336 22.656 32.832v820.8c-2.56 33.152-31.36 58.048-64.576 55.776zM805.44 74.144c-22.176 12.48-49.28 12.48-71.456 0l-81.216-46.912c-7.424-4.224-16.448-4.224-23.872 0l-81.216 46.912c-22.176 12.48-49.344 12.48-71.52 0l-81.216-46.912c-7.424-4.224-16.48-4.224-23.904 0l-81.216 46.912c-22.176 12.48-49.344 12.48-71.488 0l-71.68-41.408v820.992c0.864 11.072 10.432 19.36 21.504 18.592h687.392c11.072 0.768 20.672-7.552 21.536-18.592v-820.992l-71.68 41.408z" />
<glyph unicode="&#xe944;" glyph-name="play" d="M932.128 461.472c-2.944 5.888-7.712 10.656-13.568 13.568l-786.080 393.024c-14.944 7.488-33.088 1.408-40.544-13.536-2.112-4.192-3.2-8.832-3.2-13.536v-786.048c0-16.704 13.536-30.24 30.24-30.272 4.704 0 9.344 1.088 13.504 3.168l786.080 393.024c14.912 7.488 20.992 25.632 13.568 40.576z" />
<glyph unicode="&#xe945;" glyph-name="play-button" d="M900.288 487.872l-731.776 411.648c-14.176 7.968-31.488 7.776-45.472-0.384-14.080-8.224-22.688-23.232-22.688-39.52v-823.296c0-16.288 8.608-31.264 22.688-39.52 7.136-4.128 15.104-6.24 23.040-6.24 7.68 0 15.456 1.92 22.4 5.856l731.776 411.648c14.4 8.16 23.36 23.328 23.36 39.904s-8.96 31.744-23.36 39.872z" />
<glyph unicode="&#xe946;" glyph-name="plus" d="M973.536 447.968v0c0-29.984-24.32-54.272-54.304-54.272h-814.464c-29.984 0-54.304 24.32-54.304 54.272v0c0 30.016 24.32 54.304 54.304 54.304h814.464c29.984 0.032 54.304-24.288 54.304-54.304zM512-13.568v0c-29.984 0-54.304 24.32-54.304 54.304v814.464c0 30.016 24.32 54.304 54.304 54.304v0c30.016 0 54.272-24.32 54.272-54.304v-814.464c0.032-29.952-24.256-54.304-54.272-54.304z" />
<glyph unicode="&#xe947;" glyph-name="refresh" d="M781.888 647.648c-71.424 71.808-168.64 112.096-269.952 111.744h-55.744l89.984 89.984-50.272 49.92-174.848-175.296 172.576-175.488 50.368 49.536-89.152 90.656h57.248c171.712 0 310.88-139.168 310.88-310.912 0-171.648-139.168-310.848-310.88-310.848s-310.88 139.168-310.88 310.848v35.328h-70.688v-35.328c0.352-210.624 171.328-381.088 381.984-380.8 210.592 0.352 381.088 171.36 380.768 381.984-0.128 100.8-40.192 197.44-111.392 268.8v-0.128z" />
<glyph unicode="&#xe948;" glyph-name="report" d="M638.656 903.040h-488.48v-910.112h723.648v674.944l-235.168 235.168zM752.608 688.64h-93.184v93.184l93.184-93.184zM221.184 63.936v768.128h367.264v-178.88c0-19.616 15.872-35.488 35.52-35.488h178.848v-553.728h-581.632zM308.48 197.824h407.040v-47.36h-407.040v47.36zM308.48 642.24h241.632v-47.36h-241.632v47.36zM630.816 491.584h26.208l-101.344-101.344-79.264 79.264-175.232-175.264 33.472-33.472 141.792 141.792 79.264-79.264 134.848 134.848v-26.176h47.328v106.976h-107.040zM308.48 745.536h241.632v-47.36h-241.632v47.36z" />
<glyph unicode="&#xe949;" glyph-name="reporting-videos" d="M793.984 775.68c22.112-8.128 43.424-18.336 63.616-30.496 30.976-23.296 48.768-60.064 47.808-98.784 1.056-41.408 0.608-82.88 0-124.288-0.32-24.864-21.792-39.392-39.104-26.048-7.424 6.848-11.808 16.352-12.288 26.4-1.28 39.68-0.416 79.392-0.48 119.072 2.976 42.24-28.672 78.944-70.912 81.984-3.712 0.288-7.392 0.288-11.072 0-191.488 0.128-382.944-0.736-574.368 0.672-45.248 1.12-82.848-34.656-84-79.904-0.032-1.472-0.032-2.944 0-4.416 1.952-109.12 0.608-218.304 0.704-327.424-2.24-41.856 29.888-77.632 71.744-79.84 2.848-0.16 5.696-0.16 8.512 0.032 120.8 0 241.632-0.096 362.464-0.192 7.392 0.992 14.944-0.288 21.696-3.648 7.552-5.6 12.704-13.952 14.368-23.232-1.632-8.832-6.88-16.576-14.368-21.472-6.784-3.296-14.304-4.608-21.76-3.744-117.92-0.192-235.904-0.256-353.824-0.16-67.712-5.216-128.128 42.176-139.232 109.152-0.256 1.024-1.28 1.856-1.984 2.784v371.328c5.088 34.080 23.648 64.64 51.52 84.928 19.552 10.656 39.904 19.808 60.896 27.264l620.064 0.032zM386.816 482.016c0 33.248-0.384 66.56 0.128 99.84-1.984 13.568 7.424 26.208 20.96 28.16 7.072 1.024 14.208-0.992 19.648-5.6 53.056-32.8 105.824-66.016 158.304-99.744 13.088-5.728 19.136-20.96 13.44-34.048-2.72-6.208-7.68-11.136-13.952-13.664-51.488-33.088-103.2-65.856-155.104-98.336-24.832-15.456-43.328-4.32-43.424 25.28 0.032 32.736 0.128 65.44 0.032 98.112zM438.016 536.992v-112.704l89.216 56.704-89.216 56zM772.96 103.008c-23.328 6.24-46.080 14.304-68.064 24.192-77.76 41.024-115.584 131.392-90.24 215.52 28.96 99.488 133.088 156.8 232.64 127.904 69.376-20.192 120.992-78.368 132.736-149.664 0.704-2.688 1.76-5.312 3.104-7.712v-42.048c-1.28-3.2-2.272-6.496-3.040-9.824-7.2-48.32-33.376-91.808-72.64-120.8-27.52-19.488-59.168-32.352-92.48-37.568l-42.016 0.032zM796 426.432c-74.88 1.152-136.576-58.624-137.76-133.536-1.12-74.336 57.728-135.712 132.032-137.696 74.848-2.976 137.952 55.296 140.928 130.144s-55.328 137.92-130.144 140.96c-1.696 0.096-3.392 0.128-5.056 0.128zM790.912 381.728c2.144 0 4.48 0 6.72 0 11.328-0.32 16.512-5.792 15.744-16.864-2.56-34.88-5.152-69.728-7.84-104.64-1.088-8.096-8.576-13.856-16.64-12.736-6.72 0.928-11.968 6.176-12.8 12.896-2.592 34.624-5.216 69.312-7.776 104.032-0.896 11.52 4.32 17.088 15.84 17.28 2.24 0.096 4.544 0.064 6.784 0.064zM790.72 235.712c10.112 0.864 19.040-6.528 20.064-16.608-1.6-11.008-11.84-18.656-22.88-17.024-8.768 1.312-15.648 8.096-16.992 16.864 0.896 10.144 9.76 17.6 19.84 16.768z" />
<glyph unicode="&#xe94a;" glyph-name="sale" d="M407.2-12.672c-8.512 0-17.152 1.216-25.728 3.712-39.968 11.648-66.24 47.584-65.344 89.472 0.256 12.032-5.376 22.624-15.392 29.088-9.792 6.24-21.376 6.944-31.84 1.856-37.12-18.048-80.288-9.248-107.488 21.888-27.52 31.52-30.4 76.096-7.168 110.912 6.688 9.984 7.616 21.984 2.592 32.96-4.928 10.688-14.368 17.664-25.92 19.104-41.056 5.056-72.64 36.128-78.592 77.28-5.984 41.312 15.552 80.192 53.664 96.736 10.784 4.704 17.952 14.144 19.648 25.984 1.728 11.904-2.528 23.072-11.648 30.752-32 26.784-41.728 70.304-24.256 108.32 17.312 37.632 56.32 58.4 97.024 51.584 11.424-1.92 22.4 2.048 30.048 10.88 7.872 9.088 10.336 20.864 6.72 32.384-12.544 40 2.656 81.952 37.888 104.416 34.816 22.208 78.752 18.4 109.312-9.472 8.608-7.872 20-10.528 31.136-7.264 11.328 3.328 19.584 11.84 22.688 23.392 10.816 40.288 45.952 67.36 87.456 67.36s76.64-27.040 87.456-67.36c3.104-11.552 11.36-20.064 22.688-23.392 11.168-3.264 22.496-0.608 31.136 7.264 30.56 27.872 74.496 31.68 109.312 9.472 35.2-22.464 50.432-64.416 37.888-104.416-3.616-11.52-1.184-23.328 6.688-32.384 7.68-8.832 18.624-12.768 30.080-10.88 40.704 6.784 79.68-13.952 96.992-51.584 17.504-38.016 7.744-81.536-24.256-108.32-9.12-7.648-13.376-18.848-11.68-30.752 1.728-11.808 8.896-21.248 19.68-25.952 38.080-16.576 59.648-55.456 53.664-96.768-5.952-41.152-37.536-72.224-78.592-77.28-11.584-1.44-21.024-8.384-25.952-19.104-5.024-10.976-4.064-22.976 2.592-32.96 23.232-34.848 20.352-79.392-7.168-110.912-27.2-31.136-70.4-39.936-107.488-21.888-10.432 5.088-22.048 4.384-31.84-1.856-10.048-6.432-15.68-17.024-15.424-29.088 0.896-41.856-25.408-77.792-65.344-89.472-39.68-11.552-80.896 4.512-102.464 40-6.144 10.112-16.384 15.904-28.064 15.904s-21.92-5.792-28.064-15.904c-16.864-27.84-45.824-43.712-76.672-43.712zM511.968 104.512c31.808 0 60.672-16.288 77.28-43.584 12.192-20.064 31.488-16.256 37.12-14.592 11.808 3.424 24.32 13.92 23.904 32.928-0.64 32.096 14.976 61.568 41.952 78.784 26.688 17.088 59.584 19.040 88.096 5.152 20.8-10.112 35.008 3.552 38.88 8 8.256 9.408 13.28 25.184 2.656 41.088-17.728 26.624-20.384 59.872-7.040 88.96 13.216 28.864 39.84 48.384 71.232 52.256 18.432 2.24 26.88 16.16 28.672 28.384 1.792 12.384-2.432 28.256-19.68 35.712-29.056 12.64-49.12 39.008-53.664 70.528-4.576 31.616 7.296 62.688 31.68 83.136 14.56 12.192 14.144 28.704 8.928 40.096-2.496 5.376-12.384 22.656-35.232 18.848-31.136-5.216-62.176 5.984-82.976 29.856-21.024 24.16-27.776 56.864-18.208 87.456 5.728 18.272-3.456 31.904-13.92 38.592-4.928 3.168-22.368 12.192-39.52-3.456-23.488-21.408-55.68-28.928-86.144-20-30.624 8.96-53.856 32.8-62.144 63.744-4.864 18.24-19.648 24.704-31.84 24.704s-26.944-6.496-31.84-24.704c-8.32-30.944-31.552-54.784-62.144-63.744-30.464-8.896-62.624-1.408-86.112 20-17.184 15.68-34.624 6.624-39.552 3.456-10.496-6.688-19.648-20.352-13.92-38.592 9.6-30.592 2.784-63.296-18.24-87.456-20.8-23.904-51.808-35.072-82.976-29.856-22.88 3.808-32.736-13.472-35.232-18.848-5.248-11.392-5.664-27.904 8.896-40.096 24.416-20.448 36.256-51.52 31.712-83.136-4.576-31.52-24.64-57.888-53.664-70.528-17.216-7.488-21.44-23.36-19.648-35.712 1.76-12.224 10.24-26.112 28.64-28.384 31.36-3.872 57.984-23.424 71.232-52.32 13.344-29.056 10.72-62.336-7.040-88.928-10.624-15.904-5.6-31.648 2.656-41.088 3.872-4.448 18.112-18.080 38.912-8 28.48 13.888 61.408 11.936 88.064-5.152 26.944-17.216 42.624-46.688 41.952-78.784-0.416-19.040 12.096-29.504 23.904-32.928 5.632-1.664 24.96-5.44 37.12 14.592 16.608 27.264 45.472 43.552 77.28 43.552v0zM368.032 275.232c-7.36 0-14.752 2.816-20.352 8.416-11.232 11.264-11.232 29.472 0 40.704l287.936 287.936c11.264 11.232 29.44 11.232 40.704 0s11.232-29.472 0-40.704l-287.936-287.936c-5.632-5.6-12.992-8.416-20.352-8.416v0zM425.6 534.368c-31.744 0-57.6 25.824-57.6 57.6s25.824 57.6 57.6 57.6 57.6-25.824 57.6-57.6c0-31.776-25.824-57.6-57.6-57.6zM425.6 591.968c0-0.032 0-0.032 0-0.032v0.032zM598.368 246.432c-31.776 0-57.6 25.856-57.6 57.6s25.824 57.6 57.6 57.6 57.6-25.856 57.6-57.6c-0.032-31.744-25.856-57.6-57.6-57.6zM598.368 304.032c0-0.032 0-0.032 0 0v0z" />
<glyph unicode="&#xe94b;" glyph-name="search" d="M457.088 908.384c-223.936 0-405.472-181.568-405.472-405.472s181.568-405.472 405.472-405.472 405.472 181.568 405.472 405.472c-0.32 223.84-181.632 405.184-405.472 405.472zM457.088 172.224c-182.592 0.096-330.624 148.096-330.56 330.688 0 182.592 148.096 330.624 330.688 330.56 182.528 0 330.464-147.968 330.56-330.56-0.128-182.592-148.096-330.56-330.688-330.688zM961.44 51.488l-214.656 214.656c-14.592 14.624-38.336 14.624-52.928 0s-14.624-38.336 0-52.928l214.624-214.624c14.592-14.624 38.336-14.624 52.928 0 14.656 14.592 14.656 38.304 0.032 52.928z" />
</font>
</defs>
</svg>
